travismk
一代宗师

[2019] [欧美] [喜剧] [WEB-1080P] 假日限定男友/拐个男友回家 A.Holiday.Boyfriend.2019.1080p.AMZN.WEBRip.DDP2.0.x264-iKA 7.34GB

-->

帖子完整标题:假日限定男友/拐个男友回家 A.Holiday.Boyfriend.2019.1080p.AMZN.WEBRip.DDP2.0.x264-iKA 7.34GB



◎译  名 假日限定男友/拐个男友回家
◎片  名 A Holiday Boyfriend
◎年  代 2019
◎产  地 美国
◎类  别 喜剧 / 爱情
◎语  言 英語 English
◎上映日期 2019-12-03(美国)
◎IMDb评分 4.7/10 from 152 users
◎IMDb链接 https://www.imdb.com/title/tt8888808/
◎豆瓣评分 /10 from 0 users
◎豆瓣链接 https://movie.douban.com/subject/35058030/
◎片  长 105分钟

◎标  签 [歐美]

◎简  介

  凯蒂被男友甩了后,飞回家度假。她开始使用约会应用程序,并讨论她的第一个"见面"/约会与她的两个朋友。在许多其他混蛋之后,她希望有一个假期男友。

Video
ID : 1
Format : AVC
Format/Info : Advanced Video Codec
Format profile : [email protected]
Format settings : CABAC / 4 Ref Frames
Format settings, CABAC : Yes
Format settings, Reference frames : 4 frames
Codec ID : V_MPEG4/ISO/AVC
Duration : 1 h 45 min
Bit rate mode : Constant
Bit rate : 10 000 kb/s
Width : 1 920 pixels
Height : 1 080 pixels
Display aspect ratio : 16:9
Frame rate mode : Constant
Frame rate : 23.976 (24000/1001/189150) FPS
Color space : YUV
Chroma subsampling : 4:2:0
Bit depth : 8 bits
Scan type : Progressive
Bits/(Pixel*Frame) : 0.201
Stream size : 7.17 GiB (98%)
Default : Yes
Forced : No
Color range : Limited
Color primaries : BT.709
Transfer characteristics : BT.709
Matrix coefficients : BT.709

Audio
ID : 2
Format : E-AC-3
Format/Info : Enhanced AC-3
Commercial name : Dolby Digital Plus
Codec ID : A_EAC3
Duration : 1 h 45 min
Bit rate mode : Constant
Bit rate : 224 kb/s
Channel(s) : 2 channels
Channel layout : L R
Sampling rate : 48.0 kHz
Frame rate : 31.250 FPS (1536 SPF)
Compression mode : Lossy
Stream size : 168 MiB (2%)
Language : English
Service kind : Complete Main
Default : Yes
Forced : No

Text
ID : 3
Format : UTF-8
Codec ID : S_TEXT/UTF8
Codec ID/Info : UTF-8 Plain Text
Duration : 1 h 45 min
Bit rate : 73 b/s
Count of elements : 2250
Stream size : 56.5 KiB (0%)
Title : SDH
Language : English
Default : No
Forced : No





1 个附件 售价 大小 下载 时间

A.Holiday.Boyfriend.2019.1080p.AMZN.WEBRip.DDP2.0.x264-iKA.zip 0 金币 37.40K 287 次 1月前

#1楼
发帖时间:2020-11-25 20:22:34   |   回复数:0
游客组