travismk
一代宗师

[更 早] [欧美] [剧情] [WEB-1080P] 友情深似海/城市边缘 Edge.of.the.City.1957.1080p.AMZN.WEBRip.DDP2.0.x264-SbR 9.02GB

-->

帖子完整标题:友情深似海/城市边缘 Edge.of.the.City.1957.1080p.AMZN.WEBRip.DDP2.0.x264-SbR 9.02GB



◎译  名 友情深似海/城市边缘
◎片  名 Edge of the City
◎年  代 1957
◎产  地 美国
◎类  别 剧情 / 黑色电影
◎语  言 英语
◎上映日期 1957-01-29
◎IMDb评分 7.2/10 from 2473 users
◎IMDb链接 https://www.imdb.com/title/tt0050347/
◎豆瓣评分 /10 from 0 users
◎豆瓣链接 https://movie.douban.com/subject/1300046/
◎片  长 85 分钟
◎导  演 马丁·里特 Martin Ritt
◎编  剧 罗伯特·艾伦·奥瑟 Robert Alan Aurthur
◎主  演 西德尼·波蒂埃 Sidney Poitier
      约翰·卡萨维蒂 John Cassavetes
      凯思琳马奎尔 Kathleen Maguire
      罗伯特·F·西蒙 Robert F. Simon
      鲁斯·怀特 Ruth White
      William A. Lee
      约翰·凯洛格 John Kellogg
      罗伊·格伦 Roy Glenn
      埃斯特尔·赫姆斯利 Estelle Hemsley
      大卫·克拉克 David Clarke
      瓦尔·埃弗里 Val Avery
      杰克·瓦尔登 Jack Warden
      露比·迪 Ruby Dee
      Ralph Bell

◎标  签 John_Cassavetes | SidneyPoitier | 1950s | 美国 | Sydney-Poitier | Martin_Ritt | 剧情 | JohnCassavetes

◎简  介

  暂无相关剧情介绍

Video
ID : 1
Format : AVC
Format/Info : Advanced Video Codec
Format profile : [email protected]
Format settings : CABAC / 4 Ref Frames
Format settings, CABAC : Yes
Format settings, Reference frames : 4 frames
Codec ID : V_MPEG4/ISO/AVC
Duration : 1 h 25 min
Bit rate mode : Variable
Bit rate : 15.0 Mb/s
Width : 1 920 pixels
Height : 1 080 pixels
Display aspect ratio : 16:9
Frame rate mode : Constant
Frame rate : 23.976 (24000/1001/189150) FPS
Color space : YUV
Chroma subsampling : 4:2:0
Bit depth : 8 bits
Scan type : Progressive
Bits/(Pixel*Frame) : 0.302
Stream size : 8.89 GiB (99%)
Writing library : x264 core 148 r2623 d5b2374
Encoding settings : cabac=1 / ref=4 / deblock=1:-1:-1 / analyse=0x3:0x133 / me=umh / subme=9 / psy=1 / psy_rd=1.00:0.15 / mixed_ref=1 / me_range=24 / chroma_me=1 / trellis=2 / 8x8dct=1 / cqm=0 / deadzone=21,11 / fast_pskip=1 / chroma_qp_offset=-3 / threads=34 / lookahead_threads=5 / sliced_threads=0 / nr=150 / decimate=1 / interlaced=0 / bluray_compat=0 / constrained_intra=0 / bframes=8 / b_pyramid=2 / b_adapt=2 / b_bias=0 / direct=3 / weightb=1 / open_gop=0 / weightp=2 / keyint=120 / keyint_min=61 / scenecut=0 / intra_refresh=0 / rc_lookahead=120 / rc=crf / mbtree=1 / crf=18.0 / qcomp=0.60 / qpmin=0 / qpmax=69 / qpstep=4 / vbv_maxrate=15000 / vbv_bufsize=31250 / crf_max=0.0 / nal_hrd=vbr / filler=0 / ip_ratio=1.40 / aq=3:1.00
Language : English
Default : Yes
Forced : No
Color range : Limited
Color primaries : BT.709
Transfer characteristics : BT.709
Matrix coefficients : BT.709

Audio
ID : 2
Format : E-AC-3
Format/Info : Enhanced AC-3
Commercial name : Dolby Digital Plus
Codec ID : A_EAC3
Duration : 1 h 25 min
Bit rate mode : Constant
Bit rate : 224 kb/s
Channel(s) : 2 channels
Channel layout : L R
Sampling rate : 48.0 kHz
Frame rate : 31.250 FPS (1536 SPF)
Compression mode : Lossy
Stream size : 137 MiB (1%)
Language : English
Service kind : Complete Main
Default : Yes
Forced : No

Text #1
ID : 3
Format : UTF-8
Codec ID : S_TEXT/UTF8
Codec ID/Info : UTF-8 Plain Text
Duration : 1 h 20 min
Bit rate : 62 b/s
Count of elements : 987
Stream size : 37.1 KiB (0%)
Language : English
Default : No
Forced : No

Text #2
ID : 4
Format : UTF-8
Codec ID : S_TEXT/UTF8
Codec ID/Info : UTF-8 Plain Text
Duration : 1 h 21 min
Bit rate : 61 b/s
Count of elements : 1035
Stream size : 36.5 KiB (0%)
Title : SDH
Language : English
Default : No
Forced : No

Menu
00:00:00.000 : en:Chapter 1
00:10:03.336 : en:Chapter 2
00:20:33.300 : en:Chapter 3
00:30:32.398 : en:Chapter 4
00:40:09.943 : en:Chapter 5
00:51:14.475 : en:Chapter 6
01:00:41.676 : en:Chapter 7
01:10:14.915 : en:Chapter 8
01:20:32.900 : en:Chapter 9





1 个附件 售价 大小 下载 时间

Edge.of.the.City.1957.1080p.AMZN.WEBRip.DDP2.0.x264-SbR.zip 0 金币 45.81K 231 次 1月前

#1楼
发帖时间:2020-11-25 20:14:24   |   回复数:0
游客组