travismk
一代宗师

[更 早] [其他] [剧情] [WEB-1080P] 教父之祖/幸运的卢恰诺 Lucky.Luciano.1973.ITALIAN.1080p.AMZN.WEBRip.DDP2.0.x264-TEPES 7.64G

-->

帖子完整标题:教父之祖/幸运的卢恰诺 Lucky.Luciano.1973.ITALIAN.1080p.AMZN.WEBRip.DDP2.0.x264-TEPES 7.64GB



◎译  名 教父之祖/幸运的卢恰诺
◎片  名 Lucky Luciano
◎年  代 1973
◎产  地 美国,法国,意大利
◎类  别 剧情 / 传记 / 犯罪
◎语  言 英语,意大利语
◎上映日期 1973-10-19
◎IMDb评分 6.4/10 from 1136 users
◎IMDb链接 https://www.imdb.com/title/tt0071782/
◎豆瓣评分 7.6/10 from 60 users
◎豆瓣链接 https://movie.douban.com/subject/1452061/
◎片  长 105 分钟
◎导  演 弗朗西斯科·罗西 Francesco Rosi
◎编  剧 托尼诺·格拉 Tonino Guerra / 弗朗西斯科·罗西 Francesco Rosi / 杰罗姆·车多洛夫 Jerome Chodorov
◎主  演 吉安·马里亚·沃隆特 Gian Maria Volonté
      文森特·加迪尼亚 Vincent Gardenia
      雅克·莫诺 Jacques Monod
      Karin Petersen
      Carlo Mazzarella
      斯塔夫罗斯·托内斯 Stavros Tornes
      路易吉·因凡蒂诺 Luigi Infantino
      拉里·盖茨 Larry Gates
      查尔斯·乔菲 Charles Cioffi
      艾德蒙·奥布莱恩 Edmond O'Brien
      弗兰克·阿多尼斯 Frank Adonis
      罗德·斯泰格尔 Rod Steiger
      玛格达·科诺普卡 Magda Konopka

◎标  签 意大利 | 黑帮 | 1970s | 犯罪 | 弗朗西斯科·罗西 | FrancescoRosi | 1973 | 罗西

◎简  介

  意大利解放

Video
ID : 1
Format : AVC
Format/Info : Advanced Video Codec
Format profile : [email protected]
Format settings : CABAC / 4 Ref Frames
Format settings, CABAC : Yes
Format settings, Reference frames : 4 frames
Codec ID : V_MPEG4/ISO/AVC
Duration : 1 h 51 min
Bit rate mode : Constant
Bit rate : 10 000 kb/s
Width : 1 920 pixels
Height : 1 040 pixels
Display aspect ratio : 1.85:1
Frame rate mode : Constant
Frame rate : 24.000 FPS
Color space : YUV
Chroma subsampling : 4:2:0
Bit depth : 8 bits
Scan type : Progressive
Bits/(Pixel*Frame) : 0.209
Stream size : 7.46 GiB (98%)
Default : Yes
Forced : No
Color range : Limited
Color primaries : BT.709
Transfer characteristics : BT.709
Matrix coefficients : BT.709

Audio
ID : 2
Format : E-AC-3
Format/Info : Enhanced AC-3
Commercial name : Dolby Digital Plus
Codec ID : A_EAC3
Duration : 1 h 51 min
Bit rate mode : Constant
Bit rate : 224 kb/s
Channel(s) : 2 channels
Channel layout : L R
Sampling rate : 48.0 kHz
Frame rate : 31.250 FPS (1536 SPF)
Compression mode : Lossy
Stream size : 178 MiB (2%)
Language : Italian
Service kind : Complete Main
Default : Yes
Forced : No

Text
ID : 3
Format : UTF-8
Codec ID : S_TEXT/UTF8
Codec ID/Info : UTF-8 Plain Text
Duration : 1 h 48 min
Bit rate : 23 b/s
Count of elements : 480
Stream size : 18.8 KiB (0%)
Language : English
Default : No
Forced : No





1 个附件 售价 大小 下载 时间

Lucky.Luciano.1973.ITALIAN.1080p.AMZN.WEBRip.DDP2.0.x264-TEPES.zip 0 金币 38.88K 287 次 1月前

#1楼
发帖时间:2020-11-25 20:08:21   |   回复数:0
游客组