travismk
一代宗师

[更 早] [其他] [剧情] [WEB-1080P] 圣但尼怎么了? Wesh.Wesh.Whats.Happening.2001.FRENCH.1080p.AMZN.WEBRip.DDP2.0.x264-TEPE

-->

帖子完整标题:圣但尼怎么了? Wesh.Wesh.Whats.Happening.2001.FRENCH.1080p.AMZN.WEBRip.DDP2.0.x264-TEPES 5.80GB



◎译  名 圣但尼怎么了?
◎片  名 Wesh wesh, qu'est-ce qui se passe?
◎年  代 2001
◎产  地 法国
◎类  别 剧情
◎语  言 法语,阿拉伯语
◎上映日期 2002-05-01(法国)
◎IMDb评分 6.8/10 from 258 users
◎IMDb链接 https://www.imdb.com/title/tt0312014/
◎豆瓣评分 /10 from 0 users
◎豆瓣链接 https://movie.douban.com/subject/1947017/
◎片  长 83 分钟
◎导  演 拉巴赫·阿莫尔-兹梅什 Rabah Ameur-Za?meche
◎编  剧 拉巴赫·阿莫尔-兹梅什 Rabah Ameur-Za?meche
◎主  演 拉巴赫·阿莫尔-兹梅什 Rabah Ameur-Za?meche
      Michel Such

◎标  签 法国 | RabahAmeur-Za?meche | 法國 | 法国电影 | C法国 | C | 2002 | 0319-1-JMR

◎简  介

  Kamel, a young man from the french ghetto, near Paris, is coming back to France. He was arrested for dealing drugs, he spent five years in jail and was banned from France for two years. He tries, with his family's support, to find a job and live a normal life. But nothing's normal in the ghetto.

Video
ID : 3
Format : AVC
Format/Info : Advanced Video Codec
Format profile : [email protected]
Format settings : CABAC / 4 Ref Frames
Format settings, CABAC : Yes
Format settings, Reference frames : 4 frames
Codec ID : V_MPEG4/ISO/AVC
Duration : 1 h 24 min
Bit rate mode : Constant
Bit rate : 10 000 kb/s
Width : 1 920 pixels
Height : 1 040 pixels
Display aspect ratio : 1.85:1
Frame rate mode : Constant
Frame rate : 25.000 FPS
Color space : YUV
Chroma subsampling : 4:2:0
Bit depth : 8 bits
Scan type : Progressive
Bits/(Pixel*Frame) : 0.200
Stream size : 5.67 GiB (98%)
Default : Yes
Forced : No
Color range : Limited
Color primaries : BT.709
Transfer characteristics : BT.709
Matrix coefficients : BT.709

Audio
ID : 1
Format : E-AC-3
Format/Info : Enhanced AC-3
Commercial name : Dolby Digital Plus
Codec ID : A_EAC3
Duration : 1 h 24 min
Bit rate mode : Constant
Bit rate : 224 kb/s
Channel(s) : 2 channels
Channel layout : L R
Sampling rate : 48.0 kHz
Frame rate : 31.250 FPS (1536 SPF)
Compression mode : Lossy
Stream size : 135 MiB (2%)
Language : French
Service kind : Complete Main
Default : Yes
Forced : No

Text
ID : 2
Format : UTF-8
Codec ID : S_TEXT/UTF8
Codec ID/Info : UTF-8 Plain Text
Duration : 1 h 23 min
Bit rate : 44 b/s
Count of elements : 995
Stream size : 27.4 KiB (0%)
Language : English
Default : No
Forced : No





1 个附件 售价 大小 下载 时间

Wesh.Wesh.Whats.Happening.2001.FRENCH.1080p.AMZN.WEBRip.DDP2.0.x264-TEPES.zip 0 金币 29.72K 231 次 1月前

#1楼
发帖时间:2020-11-25 20:02:21   |   回复数:0
游客组