travismk
一代宗师

[2020] [欧美] [惊悚] [BD-Remux] 租房惊魂/夺命监 The.Rental.2020.1080p.BluRay.REMUX.AVC.DTS-HD.MA.5.1-FGT 25.15GB

-->

帖子完整标题:租房惊魂/夺命监 The.Rental.2020.1080p.BluRay.REMUX.AVC.DTS-HD.MA.5.1-FGT 25.15GB



◎译  名 租房惊魂/夺命监(港)/租赁/致命窥弑(台)
◎片  名 The Rental
◎年  代 2020
◎产  地 美国
◎类  别 惊悚 / 恐怖
◎语  言 英语
◎上映日期 2020-07-24(美国)
◎IMDb评分 5.7/10 from 13259 users
◎IMDb链接 https://www.imdb.com/title/tt10003008/
◎豆瓣评分 5.1/10 from 1706 users
◎豆瓣链接 https://movie.douban.com/subject/30487218/
◎片  长 88分钟
◎导  演 戴夫·弗兰科 Dave Franco
◎编  剧 戴夫·弗兰科 Dave Franco / 乔·斯万博格 Joe Swanberg
◎主  演 丹·史蒂文斯 Dan Stevens
      爱丽森·布里 Alison Brie
      希拉·凡德 Sheila Vand
      杰瑞米·艾伦·怀特 Jeremy Allen White
      托比·哈斯 Toby Huss
      昌克 Chunk
      安东尼·莫利纳利 Anthony Molinari

◎标  签 惊悚 | 美国 | 恐怖 | 2020 | 犯罪 | 电影 | 悬疑 | 人性

◎简  介

  两对夫妇搬入租来的度假屋中,诡异的事情却接连发生。

Video
ID : 1
ID in the original source medium : 4113 (0x1011)
Format : AVC
Format/Info : Advanced Video Codec
Format profile : [email protected]
Format settings : CABAC / 4 Ref Frames
Format settings, CABAC : Yes
Format settings, Reference frames : 4 frames
Codec ID : V_MPEG4/ISO/AVC
Duration : 1 h 28 min
Bit rate mode : Constant
Bit rate : 36.0 Mb/s
Width : 1 920 pixels
Height : 1 080 pixels
Display aspect ratio : 16:9
Frame rate mode : Constant
Frame rate : 23.976 (24000/1001/189150) FPS
Color space : YUV
Chroma subsampling : 4:2:0
Bit depth : 8 bits
Scan type : Progressive
Bits/(Pixel*Frame) : 0.724
Stream size : 21.3 GiB (85%)
Title : The.Rental.2020.1080p.BluRay.REMUX.AVC.DTS-HD.MA.5.1-FGT
Language : English
Default : No
Forced : No
Original source medium : Blu-ray

Audio #1
ID : 2
ID in the original source medium : 4352 (0x1100)
Format : DTS XLL
Format/Info : Digital Theater Systems
Commercial name : DTS-HD Master Audio
Codec ID : A_DTS
Duration : 1 h 28 min
Bit rate mode : Variable
Bit rate : 2 816 kb/s
Channel(s) : 6 channels
Channel layout : C L R Ls Rs LFE
Sampling rate : 48.0 kHz
Frame rate : 93.750 FPS (512 SPF)
Bit depth : 24 bits
Compression mode : Lossless
Stream size : 1.74 GiB (7%)
Title : The.Rental.2020.1080p.BluRay.REMUX.AVC.DTS-HD.MA.5.1-FGT
Language : English
Default : Yes
Forced : No
Original source medium : Blu-ray

Audio #2
ID : 3
ID in the original source medium : 4353 (0x1101)
Format : DTS XLL
Format/Info : Digital Theater Systems
Commercial name : DTS-HD Master Audio
Codec ID : A_DTS
Duration : 1 h 28 min
Bit rate mode : Variable
Bit rate : 1 743 kb/s
Channel(s) : 2 channels
Channel layout : L R
Sampling rate : 48.0 kHz
Frame rate : 93.750 FPS (512 SPF)
Bit depth : 24 bits
Compression mode : Lossless
Stream size : 1.08 GiB (4%)
Title : The.Rental.2020.1080p.BluRay.REMUX.AVC.DTS-HD.MA.5.1-FGT
Language : English
Default : No
Forced : No
Original source medium : Blu-ray

Audio #3
ID : 4
ID in the original source medium : 4354 (0x1102)
Format : DTS XLL
Format/Info : Digital Theater Systems
Commercial name : DTS-HD Master Audio
Codec ID : A_DTS
Duration : 1 h 28 min
Bit rate mode : Variable
Bit rate : 1 673 kb/s
Channel(s) : 2 channels
Channel layout : L R
Sampling rate : 48.0 kHz
Frame rate : 93.750 FPS (512 SPF)
Bit depth : 24 bits
Compression mode : Lossless
Stream size : 1.03 GiB (4%)
Title : The.Rental.2020.1080p.BluRay.REMUX.AVC.DTS-HD.MA.5.1-FGT
Language : English
Default : No
Forced : No
Original source medium : Blu-ray

Text #1
ID : 5
Format : UTF-8
Codec ID : S_TEXT/UTF8
Codec ID/Info : UTF-8 Plain Text
Duration : 1 h 22 min
Bit rate : 48 b/s
Count of elements : 1184
Stream size : 28.9 KiB (0%)
Title : English-SRT
Language : English
Default : Yes
Forced : No

Text #2
ID : 6
ID in the original source medium : 4608 (0x1200)
Format : PGS
Muxing mode : zlib
Codec ID : S_HDMV/PGS
Codec ID/Info : Picture based subtitle format used on BDs/HD-DVDs
Duration : 1 h 25 min
Bit rate : 31.8 kb/s
Count of elements : 1945
Stream size : 19.4 MiB (0%)
Title : English-PGS
Language : English
Default : No
Forced : No
Original source medium : Blu-ray

Text #3
ID : 7
ID in the original source medium : 4609 (0x1201)
Format : PGS
Muxing mode : zlib
Codec ID : S_HDMV/PGS
Codec ID/Info : Picture based subtitle format used on BDs/HD-DVDs
Duration : 1 h 24 min
Bit rate : 29.1 kb/s
Count of elements : 1719
Stream size : 17.6 MiB (0%)
Title : Spanish-PGS
Language : Spanish
Default : No
Forced : No
Original source medium : Blu-ray

Menu
00:00:00.000 : en:Chapter 01
00:06:23.424 : en:Chapter 02
00:13:42.321 : en:Chapter 03
00:20:58.257 : en:Chapter 04
00:30:14.854 : en:Chapter 05
00:36:32.773 : en:Chapter 06
00:43:36.405 : en:Chapter 07
00:49:01.939 : en:Chapter 08
00:53:05.974 : en:Chapter 09
00:59:48.251 : en:Chapter 10
01:06:57.596 : en:Chapter 11
01:15:27.981 : en:Chapter 12





1 个附件 售价 大小 下载 时间

The.Rental.2020.1080p.BluRay.REMUX.AVC.DTS-HD.MA.5.1-FGT.zip 0 金币 63.56K 931 次 1月前

#1楼
发帖时间:2020-11-25 19:39:26   |   回复数:1
chulps
一代宗师
~ 珍惜+支持 ~
1月前 #2楼
游客组