travismk
一代宗师

[2020] [欧美] [剧情] [BD-Remux] 浴室墙上的字 Words.on.Bathroom.Walls.2020.1080p.BluRay.REMUX.AVC.DTS-HD.MA.5.1-FGT 18.

-->

帖子完整标题:浴室墙上的字 Words.on.Bathroom.Walls.2020.1080p.BluRay.REMUX.AVC.DTS-HD.MA.5.1-FGT 18.78GB



◎译  名 浴室墙上的字
◎片  名 Words on Bathroom Walls
◎年  代 2020
◎产  地 美国
◎类  别 剧情
◎语  言 英语
◎上映日期 2020-08-21(美国)
◎IMDb评分 6.9/10 from 1105 users
◎IMDb链接 https://www.imdb.com/title/tt8045906/
◎豆瓣评分 7.0/10 from 119 users
◎豆瓣链接 https://movie.douban.com/subject/30167311/
◎片  长 111分钟
◎导  演 托尔·弗罗伊登塔尔 Thor Freudenthal
◎主  演 查理·普拉默 Charlie Plummer
      莫莉·帕克 Molly Parker
      泰勒·拉塞尔 Taylor Russell
      沃尔顿·戈金斯 Walton Goggins
      安娜索菲亚·罗伯 AnnaSophia Robb
      安迪·加西亚 Andy Garcia
      戴文·博斯蒂克 Devon Bostick
      贝丝·格兰特 Beth Grant
      洛博·塞巴斯蒂安 Lobo Sebastian
      德鲁·谢伊德 Drew Scheid
      杰拉德·班肯斯 Jared Bankens

◎标  签 美国 | 烟鬼组合 | 剧情 | 2020 | 美国电影 | 电影 | 改编 | 安娜索菲亚罗伯

◎简  介

  讲述男孩亚当被诊断患有精神分裂症,他去到一所新学校就读,开始服用新药,一开始效果看起来很不错,不过很快真相大白,他被迫做出一些艰难的决定。罗素饰演亚当的梦中情人玛雅,罗伯饰演丽贝卡,是亚当幻觉中的主要角色,作为他不能表达的情绪的管道。Nick Naveda编写剧本,基于Julia Walton所著同名小说,Mickey Liddell&Pete Shilaimon(《第一夫人》《类人猿行动》)制片。

Video
ID : 1
ID in the original source medium : 4113 (0x1011)
Format : AVC
Format/Info : Advanced Video Codec
Format profile : [email protected]
Format settings : CABAC / 4 Ref Frames
Format settings, CABAC : Yes
Format settings, Reference frames : 4 frames
Codec ID : V_MPEG4/ISO/AVC
Duration : 1 h 50 min
Bit rate mode : Variable
Bit rate : 21.0 Mb/s
Maximum bit rate : 35.0 Mb/s
Width : 1 920 pixels
Height : 1 080 pixels
Display aspect ratio : 16:9
Frame rate mode : Constant
Frame rate : 23.976 (24000/1001/189150) FPS
Standard : NTSC
Color space : YUV
Chroma subsampling : 4:2:0
Bit depth : 8 bits
Scan type : Progressive
Bits/(Pixel*Frame) : 0.423
Stream size : 16.2 GiB (86%)
Title : Words.on.Bathroom.Walls.2020.1080p.BluRay.REMUX.AVC.DTS-HD.MA.5.1-FGT
Language : English
Default : No
Forced : No
Color range : Limited
Color primaries : BT.709
Transfer characteristics : BT.709
Matrix coefficients : BT.709
Original source medium : Blu-ray

Audio
ID : 2
ID in the original source medium : 4352 (0x1100)
Format : DTS XLL
Format/Info : Digital Theater Systems
Commercial name : DTS-HD Master Audio
Codec ID : A_DTS
Duration : 1 h 50 min
Bit rate mode : Variable
Bit rate : 3 253 kb/s
Channel(s) : 6 channels
Channel layout : C L R Ls Rs LFE
Sampling rate : 48.0 kHz
Frame rate : 93.750 FPS (512 SPF)
Bit depth : 24 bits
Compression mode : Lossless
Stream size : 2.51 GiB (13%)
Title : Words.on.Bathroom.Walls.2020.1080p.BluRay.REMUX.AVC.DTS-HD.MA.5.1-FGT
Language : English
Default : Yes
Forced : No
Original source medium : Blu-ray

Text #1
ID : 3
Format : UTF-8
Codec ID : S_TEXT/UTF8
Codec ID/Info : UTF-8 Plain Text
Duration : 1 h 42 min
Bit rate : 69 b/s
Count of elements : 1851
Stream size : 52.3 KiB (0%)
Title : English-SRT
Language : English
Default : Yes
Forced : No

Text #2
ID : 4
ID in the original source medium : 4608 (0x1200)
Format : PGS
Muxing mode : zlib
Codec ID : S_HDMV/PGS
Codec ID/Info : Picture based subtitle format used on BDs/HD-DVDs
Duration : 1 h 42 min
Bit rate : 51.4 kb/s
Count of elements : 3978
Stream size : 37.8 MiB (0%)
Title : English-PGS
Language : English
Default : No
Forced : No
Original source medium : Blu-ray

Text #3
ID : 5
ID in the original source medium : 4609 (0x1201)
Format : PGS
Muxing mode : zlib
Codec ID : S_HDMV/PGS
Codec ID/Info : Picture based subtitle format used on BDs/HD-DVDs
Duration : 1 h 42 min
Bit rate : 48.5 kb/s
Count of elements : 2658
Stream size : 35.6 MiB (0%)
Title : Spanish-PGS
Language : Spanish
Default : No
Forced : No
Original source medium : Blu-ray

Menu
00:00:00.000 : en:Chapter 01
00:06:30.807 : en:Chapter 02
00:16:49.008 : en:Chapter 03
00:22:59.378 : en:Chapter 04
00:29:52.457 : en:Chapter 05
00:36:10.168 : en:Chapter 06
00:43:07.585 : en:Chapter 07
00:51:49.731 : en:Chapter 08
00:58:41.518 : en:Chapter 09
01:05:11.198 : en:Chapter 10
01:09:41.802 : en:Chapter 11
01:14:14.074 : en:Chapter 12
01:19:40.692 : en:Chapter 13
01:31:19.098 : en:Chapter 14
01:36:31.410 : en:Chapter 15
01:44:19.253 : en:Chapter 16





1 个附件 售价 大小 下载 时间

Words.on.Bathroom.Walls.2020.1080p.BluRay.REMUX.AVC.DTS-HD.MA.5.1-FGT.zip 0 金币 94.63K 427 次 1月前

#1楼
发帖时间:2020-11-25 19:35:27   |   回复数:0
游客组