q3r3
武林盟主

[更 早] [其他] [剧情] [BD-1080P] 世上最快的印第安摩托/世上最快的印地安摩托 The.Worlds.Fastest.Indian.2005.1080p.BluRay.x264-LCHD 8.74

-->

帖子完整标题:世上最快的印第安摩托/世上最快的印地安摩托 The.Worlds.Fastest.Indian.2005.1080p.BluRay.x264-LCHD 8.74GB



◎译  名 世上最快的印第安摩托/世上最快的印地安摩托/世界上跑得最快的印第安人/向极速出发/超速先生
◎片  名 The World's Fastest Indian
◎年  代 2005
◎产  地 新西兰,美国,瑞士,日本
◎类  别 剧情 / 传记 / 运动
◎语  言 英语
◎上映日期 2005-10-13(新西兰)
◎IMDb评分 7.8/10 from 51613 users
◎IMDb链接 https://www.imdb.com/title/tt0412080/
◎豆瓣评分 8.9/10 from 8591 users
◎豆瓣链接 https://movie.douban.com/subject/1449711/
◎片  长 127分钟
◎导  演 罗杰·唐纳森 Roger Donaldson
◎编  剧 罗杰·唐纳森 Roger Donaldson
◎主  演 安东尼·霍普金斯 Anthony Hopkins
      艾伦·墨菲 Aaron Murphy
      Alison Bruce
      埃里克·皮尔波特 Eric Pierpoint
      迈克尔·曼特尔 Michael Mantell
      安东尼·斯塔尔 Antony Starr
      克里斯·威廉斯 Chris Williams
      克里斯·布鲁诺 Chris Bruno
      克里格·霍尔 Craig Hall
      詹姆斯·盖林 James Gaylyn
      Thomas McMinn
      Daniel Sing
      吉姆·杰普森 Jim Jepson
      沃尔顿·戈金斯 Walton Goggins
      Todd Emerson
      Campbell Cooley
      加文·格雷泽 Gavin Grazer
      乔·霍华德 Joe Howard
      戴安·拉德 Diane Ladd
      布鲁斯·格林伍德 Bruce Greenwood
      威廉姆·拉金 William Lucking
      克里斯多福·劳福德 Christopher Lawford
      查尔斯·哈尔福德 Charles Halford
      Nicholas Lanier
      Kristen Marie Jensen
      帕特里克·约翰·弗吕格 Patrick John Flueger
      Tim Sabuco
      Latham Gaines
      保罗·罗德里奇斯 Paul Rodriguez
      蒂姆·夏伯特 Tim Shadbolt
      Steve O'Neill
      卡洛斯·拉卡马拉 Carlos Lacamara
      Tom Jacobsen
      杰西卡·卡普肖 Jessica Cauffiel

◎标  签 励志 | 安东尼·霍普金斯 | 梦想 | 美国 | 传记 | 人生 | 世上最快的印第安摩托 | 美国电影

◎简  介

  电影改编自世界著名摩托车手伯特·孟若的生平,真实而又生动的再现了一代传奇车手跌宕起伏的一生。故事开始于1899年,孟若(安东尼·霍普金斯 Anthony Hopkins 饰)降生到了这个世界上,从小体弱多病的他甚至被医生下达过“死亡通知书”,但幸运的是,孟若还是顺利的长大了。
  
  1915年,孟若有了自己的第一辆摩托车,从此开启了与风竞速的生涯,直到七十二岁那一年,孟若依然没有放弃自己曾经的梦想。他改装了二十年代购入的印第安牌侦查摩托车,从新西兰骑往美国。一路上,孟若结识了易装癖者蒂娜(克里斯·威廉斯 Chris Williams 饰)、寡妇艾达(戴安·拉德 Diane Ladd 饰)、销售员佛兰多(保罗·罗德里奇斯 Paul Rodriguez 饰)等一干有趣的朋友们,在他们的帮助和鼓励下最终创下了新的世界纪录。

Video
ID : 1
Format : AVC
Format/Info : Advanced Video Codec
Format profile : [email protected]
Format settings : CABAC / 5 Ref Frames
Format settings, CABAC : Yes
Format settings, Reference frames : 5 frames
Codec ID : V_MPEG4/ISO/AVC
Duration : 2 h 6 min
Bit rate : 8 357 kb/s
Width : 1 920 pixels
Height : 816 pixels
Display aspect ratio : 2.35:1
Frame rate mode : Constant
Frame rate : 24.000 FPS
Color space : YUV
Chroma subsampling : 4:2:0
Bit depth : 8 bits
Scan type : Progressive
Bits/(Pixel*Frame) : 0.222
Stream size : 7.23 GiB (83%)
Writing library : x264 core 94 r1570 d9db8b3
Encoding settings : cabac=1 / ref=5 / deblock=1:-1:-1 / analyse=0x3:0x113 / me=umh / subme=7 / psy=1 / psy_rd=1.00:0.00 / mixed_ref=1 / me_range=16 / chroma_me=1 / trellis=2 / 8x8dct=1 / cqm=0 / deadzone=21,11 / fast_pskip=1 / chroma_qp_offset=-2 / threads=6 / sliced_threads=0 / nr=0 / decimate=1 / interlaced=0 / constrained_intra=0 / bframes=3 / b_pyramid=2 / b_adapt=2 / b_bias=0 / direct=3 / wpredb=1 / wpredp=2 / keyint=250 / keyint_min=25 / scenecut=40 / intra_refresh=0 / rc_lookahead=40 / rc=2pass / mbtree=1 / bitrate=8357 / ratetol=1.0 / qcomp=0.60 / qpmin=10 / qpmax=51 / qpstep=4 / cplxblur=20.0 / qblur=0.5 / vbv_maxrate=50000 / vbv_bufsize=50000 / ip_ratio=1.40 / aq=1:1.00 / nal_hrd=none
Language : English
Default : Yes
Forced : Yes

Audio
ID : 2
Format : DTS
Format/Info : Digital Theater Systems
Codec ID : A_DTS
Duration : 2 h 6 min
Bit rate mode : Constant
Bit rate : 1 509 kb/s
Channel(s) : 6 channels
Channel layout : C L R Ls Rs LFE
Sampling rate : 48.0 kHz
Frame rate : 93.750 FPS (512 SPF)
Bit depth : 24 bits
Compression mode : Lossy
Stream size : 1.34 GiB (15%)
Language : English
Default : Yes
Forced : Yes





1 个附件 售价 大小 下载 时间

The.Worlds.Fastest.Indian.2005.1080p.BluRay.x264-LCHD.zip 0 金币 88.05K 469 次 1月前

#1楼
发帖时间:2020-11-25 09:29:18   |   回复数:1
exiuluo
武林高手
感谢分享,下载帮顶
1月前 #2楼
游客组