q3r3
武林盟主

[更 早] [其他] [剧情] [BD-1080P] 十三太保 The.Heroic.Ones.1970.1080p.BluRay.x264-LCHD 7.95GB

-->

帖子完整标题:十三太保 The.Heroic.Ones.1970.1080p.BluRay.x264-LCHD 7.95GB



◎译  名 The Heroic Ones
◎片  名 十三太保
◎年  代 1970
◎产  地 中国香港
◎类  别 剧情 / 动作 / 武侠 / 古装
◎语  言 汉语普通话
◎上映日期 1970-08-14
◎IMDb评分 6.7/10 from 650 users
◎IMDb链接 https://www.imdb.com/title/tt0070684/
◎豆瓣评分 7.4/10 from 3069 users
◎豆瓣链接 https://movie.douban.com/subject/1306416/
◎片  长 117 分钟
◎导  演 张彻 Cheh Chang
◎编  剧 张彻 Cheh Chang / 罗贯中 Guanzhong Luo
◎主  演 姜大卫 David Chiang
      狄龙 Lung Ti
      谷峰 Feng Ku
      齐琳 Chai Lam
      金天柱 Tien-Chu Chin
      林源 Lam Yuen
      邓祥 Tang Cheung
      俞文华 Wen-Hua Yu
      顧占熊 Tsan-Hsiung Ku
      朱今 Chin Chu
      王青 Ching Wong
      胡波 Wu Por
      戚毅雄 Ngai-Hung Chik
      杨柏尘 Pak-Chan Yeung
      陈强 Chan Keung
      黄梅 Wong Mei
      卢慧 Lo Wai
      罗强 Chiang Lo
      刘俊辉 Chun Fai Lau
      徐发 Fat Tsui
      伍元勋 Ng Yuen-Fan
      陈绍佳 Shao-Chia Chen
      岑潜波 Chien-Po Tsen
      龙逸升 Tang Tak-Cheung
      周小来 Siu Loi Chow
      金军 Chun Chin
      张志平 Chi Ping Chang
      王光裕 Kuang Yu Wang
      袁信义 Shun-Yee Yuen
      袁祥仁 Cheung-Yan Yuen
      刘家荣 Chia Yung Liu
      任世官 Shi-Kwan Yen
      郑康业 Kang-Yeh Cheng
      陈星 Sing Chen
      杨斯 Bolo Yeung
      李丽丽 Lily Li
      金汉 Han Chin
      冯克安 Hark-On Fung
      蓝伟烈 Wei Lien Lan
      黄哈 Ha Huang
      曾楚霖 Choh-Lam Tsang
      万里 Li Wan
      何柏光 Pak-Kwong Ho
      黄培基 Pei Chi Huang
      陈全 Chuan Chen
      郑雷 Lei Cheng
      郝履仁 Li Jen Ho
      王钟 Chung Wang

◎标  签 张彻 | 邵氏 | 姜大卫 | 香港 | 狄龙 | 武侠 | 香港电影 | 1970

◎简  介

  唐末,黄巢起义军攻入唐首都长安,晋王李克用(谷峰 饰)受命剿贼,收复都城。沙陀族人李克用其时拥兵十万,麾下猛将如云,更有义子组成的十三太保能征善战,一时风光无两。
  
  汴梁节度使朱温客访观战,恰逢黄巢手下第一勇将孟绝海搦战,第十三太保李存孝(姜大卫 饰)出阵迎敌,活捉孟绝海 ,但李为人持勇傲物,朱温受辱于功宴,怀恨在心。
  
  四太保李存信嫉妒李存孝功高,献计轻兵直入长安取黄巢首级,李克用命九名太保行刺,由李存孝统领。九人夜入长安,连番血战后在五凤楼将黄巢射伤,无奈敌兵势众,九人于民女燕姑娘家暂避,期间李存信与十二太保康君利欲行不轨,为李存孝赶出队伍。
  
  李存信、唐君利落寞之际被朱温蛊惑,诱使李克用入汴梁,朱温灌醉李克用、十一太保史敬思(狄龙 饰)后痛下杀手,史敬思为保李克用力竭身死,千钧一发之际李存孝率黑鸦兵赶到。
  
  李、唐二人一计不成又生一计,两人盗得李克用贴身佩剑,假传钧旨,势要致李存孝于死地……

Video
ID : 1
Format : AVC
Format/Info : Advanced Video Codec
Format profile : [email protected]
Format settings : CABAC / 5 Ref Frames
Format settings, CABAC : Yes
Format settings, Reference frames : 5 frames
Codec ID : V_MPEG4/ISO/AVC
Duration : 2 h 1 min
Bit rate : 9 206 kb/s
Width : 1 920 pixels
Height : 816 pixels
Display aspect ratio : 2.35:1
Frame rate mode : Constant
Frame rate : 29.970 (30000/1001/189150) FPS
Color space : YUV
Chroma subsampling : 4:2:0
Bit depth : 8 bits
Scan type : Progressive
Bits/(Pixel*Frame) : 0.196
Stream size : 7.63 GiB (96%)
Writing library : x264 core 93 r1538 bd72d46
Encoding settings : cabac=1 / ref=5 / deblock=1:-1:-1 / analyse=0x3:0x113 / me=umh / subme=7 / psy=1 / psy_rd=1.00:0.00 / mixed_ref=1 / me_range=16 / chroma_me=1 / trellis=2 / 8x8dct=1 / cqm=0 / deadzone=21,11 / fast_pskip=1 / chroma_qp_offset=-2 / threads=12 / sliced_threads=0 / nr=0 / decimate=1 / interlaced=0 / constrained_intra=0 / bframes=3 / b_pyramid=2 / b_adapt=2 / b_bias=0 / direct=3 / wpredb=1 / wpredp=2 / keyint=250 / keyint_min=25 / scenecut=40 / intra_refresh=0 / rc_lookahead=40 / rc=2pass / mbtree=1 / bitrate=9206 / ratetol=1.0 / qcomp=0.60 / qpmin=10 / qpmax=51 / qpstep=4 / cplxblur=20.0 / qblur=0.5 / vbv_maxrate=50000 / vbv_bufsize=50000 / ip_ratio=1.40 / aq=1:1.00 / nal_hrd=none
Language : Chinese
Default : Yes
Forced : Yes

Audio
ID : 2
Format : AC-3
Format/Info : Audio Coding 3
Commercial name : Dolby Digital
Codec ID : A_AC3
Duration : 2 h 1 min
Bit rate mode : Constant
Bit rate : 192 kb/s
Channel(s) : 2 channels
Channel layout : L R
Sampling rate : 48.0 kHz
Frame rate : 31.250 FPS (1536 SPF)
Compression mode : Lossy
Stream size : 167 MiB (2%)
Language : Chinese
Service kind : Complete Main
Default : Yes
Forced : Yes

Text
ID : 3
Format : UTF-8
Codec ID : S_TEXT/UTF8
Codec ID/Info : UTF-8 Plain Text
Language : English
Default : Yes
Forced : No





1 个附件 售价 大小 下载 时间

The.Heroic.Ones.1970.1080p.BluRay.x264-LCHD.zip 0 金币 80.13K 609 次 1月前

#1楼
发帖时间:2020-11-25 09:17:45   |   回复数:0
游客组