travismk
一代宗师

[2020] [其他] [恐怖] [WEB-1080P] 恶魔的请柬:第二章 May.the.Devil.Take.You.Chapter.Two.2020.INDONESIAN.ENSUBBED.1080p.AMZN

-->

帖子完整标题:恶魔的请柬:第二章 May.the.Devil.Take.You.Chapter.Two.2020.INDONESIAN.ENSUBBED.1080p.AMZN.WEBRip.DDP2.0.x264-TEPES 4.48GB



◎译  名 恶魔的请柬:第二章/May the Devil Take You: Chapter Two/恶魔的请柬2
◎片  名 Sebelum Iblis Menjemput: Ayat Dua
◎年  代 2020
◎产  地 印度尼西亚
◎类  别 恐怖
◎语  言 印度尼西亚语
◎上映日期 2020-02-27(印度尼西亚)
◎IMDb评分 6/10 from 264 users
◎IMDb链接 https://www.imdb.com/title/tt10776270/
◎豆瓣评分 /10 from 0 users
◎豆瓣链接 https://movie.douban.com/subject/34816854/
◎片  长 110分钟
◎导  演 提莫·塔哈亚托 Timo Tjahjanto
◎编  剧 提莫·塔哈亚托 Timo Tjahjanto
◎主  演 切尔西·艾斯兰 Chelsea Islan
      哈迪贾·沙哈布 Hadijah Shahab
      卡瑞娜·萨利姆 Karina Salim
      斯莱法·达尼什 Shareefa Daanish
      卡琳娜·苏万迪 Karina Suwandhi
      鲁思·马里尼 Ruth Marini
      奥雷·莫雷曼斯 Aurélie Moeremans

◎标  签 恐怖 | 灵异 | 惊悚 | 印尼电影 | 印尼 | 没上映已看 | 一般 | 没看▲▲▲▲▲▲▲▲▲▲

◎简  介

  在逃离恶魔恐怖的两年后,阿尔菲(切尔西·伊斯兰)和奈良(哈迪亚·沙哈卜)试图继续他们的生活。但是阿尔菲仍然感到内和不自然的视线困扰。阿尔菲最可怕的噩梦才刚刚开始,等待她的危险正日益威胁着:如此渴望灵魂的黑暗形象开始夺去他们的生命。

Video
ID : 1
Format : AVC
Format/Info : Advanced Video Codec
Format profile : [email protected]
Format settings : CABAC / 4 Ref Frames
Format settings, CABAC : Yes
Format settings, Reference frames : 4 frames
Codec ID : V_MPEG4/ISO/AVC
Duration : 1 h 49 min
Bit rate mode : Constant
Bit rate : 5 622 kb/s
Nominal bit rate : 10 000 kb/s
Width : 1 920 pixels
Height : 816 pixels
Display aspect ratio : 2.35:1
Frame rate mode : Constant
Frame rate : 24.000 FPS
Color space : YUV
Chroma subsampling : 4:2:0
Bit depth : 8 bits
Scan type : Progressive
Bits/(Pixel*Frame) : 0.150
Stream size : 4.31 GiB (96%)
Default : Yes
Forced : No
Color range : Limited
Color primaries : BT.709
Transfer characteristics : BT.709
Matrix coefficients : BT.709

Audio
ID : 2
Format : E-AC-3
Format/Info : Enhanced AC-3
Commercial name : Dolby Digital Plus
Codec ID : A_EAC3
Duration : 1 h 49 min
Bit rate mode : Constant
Bit rate : 224 kb/s
Channel(s) : 2 channels
Channel layout : L R
Sampling rate : 48.0 kHz
Frame rate : 31.250 FPS (1536 SPF)
Compression mode : Lossy
Stream size : 176 MiB (4%)
Language : Indonesian
Service kind : Complete Main
Default : Yes
Forced : No





1 个附件 售价 大小 下载 时间

May.the.Devil.Take.You.Chapter.Two.2020.INDONESIAN.ENSUBBED.1080p.AMZN.WEBRip.DDP2.0.x264-TEPES.zip 0 金币 45.59K 469 次 28天前

#1楼
发帖时间:2020-10-29 20:22:14   |   回复数:0
游客组