travismk
一代宗师

[2017] [其他] [喜剧] [WEB-1080P] 螺丝钉之绝顶机密/神秘的小矮人 The.Fixies.Top.Secret.2017.1080p.AMZN.WEBRip.DDP5.1.x264-NOGRP 2

-->

帖子完整标题:螺丝钉之绝顶机密/神秘的小矮人 The.Fixies.Top.Secret.2017.1080p.AMZN.WEBRip.DDP5.1.x264-NOGRP 2.96GB



◎译  名 螺丝钉之绝顶机密/神秘的小矮人
◎片  名 The Fixies: Top Secret
◎年  代 2017
◎产  地 俄罗斯
◎类  别 喜剧 / 科幻 / 动画 / 家庭 / 冒险
◎语  言 俄语,英语,日语
◎上映日期 2017-10-28(俄罗斯)
◎IMDb评分 5.1/10 from 153 users
◎IMDb链接 https://www.imdb.com/title/tt6106526/
◎豆瓣评分 /10 from 0 users
◎豆瓣链接 https://movie.douban.com/subject/30266102/
◎片  长 80分钟
◎编  剧 杰弗里·海尔顿 Jeffrey Hylton
◎主  演 迪米特里·纳佐罗夫 Dmitriy Nazarov
      比尔·奈 Bill Nye

◎标  签 螺丝钉 | 动画 | 电影 | 冒险 | 儿童 | 美国 | 俄罗斯 | 2017

◎简  介

  《螺丝钉之绝顶机密》动画电影是根据风靡全球(80个国家,包括中国在内)动画电视剧“螺丝钉”制作的动画电影。
  
  一所普通的人类公寓中,生活着不仅仅有人类家庭,还有另一个物种,那就是螺丝钉家族,他们可以变身为螺丝钉,生活在家中最常见的电器中。在这个人类家庭中,只有他们的孩子吉姆知道螺丝钉种族的存在,因为每当吉姆遇到一些常见的技术问题时,小螺丝钉家族就会出现,他们不仅仅帮助吉姆处理好他所遇到的各种科学技术难题,还将各种家用电器、生活设备的基本原理、生活常识及做人的道理传授给他,比如电视遥控器是如何工作的,为什么闹钟可以自动打鸣?DVD 刻录机是如何纪录影响的等等。当然,在遇到危机的时候,他们是如何团结在一起对抗邪恶力量的?

Video
ID : 1
Format : AVC
Format/Info : Advanced Video Codec
Format profile : [email protected]
Format settings : CABAC / 4 Ref Frames
Format settings, CABAC : Yes
Format settings, Reference frames : 4 frames
Codec ID : V_MPEG4/ISO/AVC
Duration : 1 h 16 min
Bit rate : 4 919 kb/s
Width : 1 920 pixels
Height : 1 040 pixels
Display aspect ratio : 1.85:1
Frame rate mode : Constant
Frame rate : 24.000 FPS
Color space : YUV
Chroma subsampling : 4:2:0
Bit depth : 8 bits
Scan type : Progressive
Bits/(Pixel*Frame) : 0.103
Stream size : 2.62 GiB (88%)
Language : English
Default : Yes
Forced : No
Color range : Limited
Color primaries : BT.709
Transfer characteristics : BT.709
Matrix coefficients : BT.709

Audio
ID : 2
Format : E-AC-3
Format/Info : Enhanced AC-3
Commercial name : Dolby Digital Plus
Codec ID : A_EAC3
Duration : 1 h 16 min
Bit rate mode : Constant
Bit rate : 640 kb/s
Channel(s) : 6 channels
Channel layout : L R C LFE Ls Rs
Sampling rate : 48.0 kHz
Frame rate : 31.250 FPS (1536 SPF)
Compression mode : Lossy
Stream size : 349 MiB (12%)
Language : English
Service kind : Complete Main
Default : Yes
Forced : No

Text
ID : 3
Format : UTF-8
Codec ID : S_TEXT/UTF8
Codec ID/Info : UTF-8 Plain Text
Duration : 1 h 14 min
Bit rate : 83 b/s
Count of elements : 1703
Stream size : 45.8 KiB (0%)
Language : English
Default : Yes
Forced : No





1 个附件 售价 大小 下载 时间

The.Fixies.Top.Secret.2017.1080p.AMZN.WEBRip.DDP5.1.x264-NOGRP.zip 0 金币 30.30K 91 次 29天前

#1楼
发帖时间:2020-10-29 20:12:32   |   回复数:0
游客组