travismk
一代宗师

[更 早] [欧美] [剧情] [WEB-1080P] 河内希尔顿 The.Hanoi.Hilton.1987.1080p.AMZN.WEBRip.DDP2.0.x264-NOGRP 10.79GB

-->

帖子完整标题:河内希尔顿 The.Hanoi.Hilton.1987.1080p.AMZN.WEBRip.DDP2.0.x264-NOGRP 10.79GB



◎译  名 河内希尔顿/The Hanoi Hilton
◎片  名 The Hanoi Hilton
◎年  代 1987
◎产  地 美国
◎类  别 剧情 / 战争
◎语  言 英语,越南语,法语
◎上映日期 1987-05-23
◎IMDb评分 6.2/10 from 904 users
◎IMDb链接 https://www.imdb.com/title/tt0093143/
◎豆瓣评分 /10 from 0 users
◎豆瓣链接 https://movie.douban.com/subject/5047529/
◎片  长 125 分钟
◎导  演 莱昂内尔·切特温德 Lionel Chetwynd
◎编  剧 莱昂内尔·切特温德 Lionel Chetwynd
◎主  演 迈克尔·莫里亚蒂 Michael Moriarty
      保罗·勒马特 Paul Le Mat
      大卫·索尔 David Soul
      杰弗瑞·琼斯 Jeffrey Jones
      Tony Markes
      约翰·瓦尔加斯 John Vargas
      Scotty Sachs
      Peter Pan
      Bruce Fairbairn
      约翰·迪尔 John Diehl
      阿基·阿莱格 Aki Aleong
      道格·萨文特 Doug Savant
      劳伦斯·普莱斯曼 Lawrence Pressman
      Michael Russo

◎标  签 越战 | 战争 | 人性 | Moriety | Micheal

◎简  介

  在北越河内最臭名昭著的战俘集中营中,向我们展示了北越的虐俘行径。

Video
ID : 1
Format : AVC
Format/Info : Advanced Video Codec
Format profile : [email protected]
Format settings : CABAC / 4 Ref Frames
Format settings, CABAC : Yes
Format settings, Reference frames : 4 frames
Codec ID : V_MPEG4/ISO/AVC
Duration : 2 h 5 min
Bit rate : 12.0 Mb/s
Width : 1 920 pixels
Height : 1 080 pixels
Display aspect ratio : 16:9
Frame rate mode : Constant
Frame rate : 23.976 (24000/1001/189150) FPS
Color space : YUV
Chroma subsampling : 4:2:0
Bit depth : 8 bits
Scan type : Progressive
Bits/(Pixel*Frame) : 0.242
Stream size : 10.6 GiB (98%)
Default : Yes
Forced : No
Color range : Limited
Color primaries : BT.709
Transfer characteristics : BT.709
Matrix coefficients : BT.709

Audio
ID : 2
Format : E-AC-3
Format/Info : Enhanced AC-3
Commercial name : Dolby Digital Plus
Codec ID : A_EAC3
Duration : 2 h 5 min
Bit rate mode : Constant
Bit rate : 224 kb/s
Channel(s) : 2 channels
Channel layout : L R
Sampling rate : 48.0 kHz
Frame rate : 31.250 FPS (1536 SPF)
Compression mode : Lossy
Stream size : 202 MiB (2%)
Language : English
Service kind : Complete Main
Default : Yes
Forced : No

Text #1
ID : 3
Format : UTF-8
Codec ID : S_TEXT/UTF8
Codec ID/Info : UTF-8 Plain Text
Duration : 1 h 59 min
Bit rate : 54 b/s
Count of elements : 1444
Stream size : 47.5 KiB (0%)
Language : English
Default : No
Forced : No

Text #2
ID : 4
Format : UTF-8
Codec ID : S_TEXT/UTF8
Codec ID/Info : UTF-8 Plain Text
Duration : 2 h 3 min
Bit rate : 58 b/s
Count of elements : 1679
Stream size : 53.0 KiB (0%)
Title : SDH
Language : English
Default : No
Forced : No





1 个附件 售价 大小 下载 时间

The.Hanoi.Hilton.1987.1080p.AMZN.WEBRip.DDP2.0.x264-NOGRP.zip 0 金币 54.61K 161 次 29天前

#1楼
发帖时间:2020-10-29 20:06:29   |   回复数:0
游客组