travismk
一代宗师

[2019] [其他] [WEB-1080P] 年轻的侍者 The.Young.Observant.2019.ITALIAN.1080p.AMZN.WEBRip.DDP2.0.x264-TEPES 5.49G

-->

帖子完整标题:年轻的侍者 The.Young.Observant.2019.ITALIAN.1080p.AMZN.WEBRip.DDP2.0.x264-TEPES 5.49GB



◎译  名 年轻的侍者/The Young Observant
◎片  名 L'apprendistato
◎年  代 2019
◎产  地 意大利
◎类  别 
◎语  言 意大利语
◎上映日期 2019-08-11(洛迦诺电影节)
◎IMDb评分 6.6/10 from 38 users
◎IMDb链接 https://www.imdb.com/title/tt10661340/
◎豆瓣评分 /10 from 0 users
◎豆瓣链接 https://movie.douban.com/subject/34617564/

◎标  签 Locarno2019 | Davide_Maldi | 纪录片 | 意大利 | 己亥 | Z意大利 | P-LocarnoB入围当代电影人单元 | DCP2019

◎简  介

  To become a hotel clerk you need one thing above all else: discipline. Of course that’s not so easy for an adolescent. Shy, fourteen-year-old Luca finds it especially difficult. He can neither stand still nor wants to have his shaggy red hair cut. He’d rather flirt with his teacher during French lessons or go hunting in the lonely forest. He’s bored by the equally renowned and stuffy hotel management school, whose perpetual routines get on his nerves: folding napkins, polishing glasses, listening. The problem, though, is that his family have great expectations of him.
  
  Having grown up in a tiny Alpine mountain village, the boy of course knows how his way around the cows on the farm back home. The surrounding forests were his territory where he could let off steam. Now school is supposed to tame him, teach him self-discipline and ultimately help him find a decent job. In restful vintage images the Italian director Davide Maldi illustrates the tight corset of a training institution that seems to have fallen out of time. Antique wooden furniture, lemon-yellow walls, young gentlemen in black waistcoats and buttoned-up white shirts. They provide the costumes and setting of an intimate coming-of-age story which revolves around a sacrifice: Must Luca give up his free spirit to become “something”?

Video
ID : 1
Format : AVC
Format/Info : Advanced Video Codec
Format profile : [email protected]
Format settings : CABAC / 4 Ref Frames
Format settings, CABAC : Yes
Format settings, Reference frames : 4 frames
Codec ID : V_MPEG4/ISO/AVC
Duration : 1 h 25 min
Bit rate mode : Constant
Bit rate : 8 921 kb/s
Nominal bit rate : 10 000 kb/s
Width : 1 920 pixels
Height : 1 040 pixels
Display aspect ratio : 1.85:1
Frame rate mode : Constant
Frame rate : 25.000 FPS
Color space : YUV
Chroma subsampling : 4:2:0
Bit depth : 8 bits
Scan type : Progressive
Bits/(Pixel*Frame) : 0.179
Stream size : 5.35 GiB (98%)
Default : Yes
Forced : No
Color range : Limited
Color primaries : BT.709
Transfer characteristics : BT.709
Matrix coefficients : BT.709

Audio
ID : 2
Format : E-AC-3
Format/Info : Enhanced AC-3
Commercial name : Dolby Digital Plus
Codec ID : A_EAC3
Duration : 1 h 25 min
Bit rate mode : Constant
Bit rate : 224 kb/s
Channel(s) : 2 channels
Channel layout : L R
Sampling rate : 48.0 kHz
Frame rate : 31.250 FPS (1536 SPF)
Compression mode : Lossy
Stream size : 138 MiB (2%)
Language : Italian
Service kind : Complete Main
Default : Yes
Forced : No

Text #1
ID : 3
Format : UTF-8
Codec ID : S_TEXT/UTF8
Codec ID/Info : UTF-8 Plain Text
Duration : 1 h 17 min
Bit rate : 35 b/s
Count of elements : 590
Stream size : 20.5 KiB (0%)
Language : English
Default : No
Forced : No

Text #2
ID : 4
Format : UTF-8
Codec ID : S_TEXT/UTF8
Codec ID/Info : UTF-8 Plain Text
Duration : 1 h 16 min
Bit rate : 39 b/s
Count of elements : 593
Stream size : 22.3 KiB (0%)
Title : Espa?ol
Language : Spanish
Default : No
Forced : No

Text #3
ID : 5
Format : UTF-8
Codec ID : S_TEXT/UTF8
Codec ID/Info : UTF-8 Plain Text
Duration : 1 h 20 min
Bit rate : 35 b/s
Count of elements : 572
Stream size : 20.8 KiB (0%)
Language : French
Default : No
Forced : No

Text #4
ID : 6
Format : UTF-8
Codec ID : S_TEXT/UTF8
Codec ID/Info : UTF-8 Plain Text
Duration : 1 h 17 min
Bit rate : 35 b/s
Count of elements : 594
Stream size : 20.2 KiB (0%)
Language : Turkish
Default : No
Forced : No





1 个附件 售价 大小 下载 时间

The.Young.Observant.2019.ITALIAN.1080p.AMZN.WEBRip.DDP2.0.x264-TEPES.zip 0 金币 28.14K 119 次 28天前

#1楼
发帖时间:2020-10-29 19:58:38   |   回复数:0
游客组