travismk
一代宗师

[2020] [欧美] [剧情] [WEB-1080P] 魔女游戏/入魔 The.Craft.Legacy.2020.1080p.WEB.H264-NAISU 4.70GB

-->

帖子完整标题:魔女游戏/入魔 The.Craft.Legacy.2020.1080p.WEB.H264-NAISU 4.70GB



◎译  名 魔女游戏/入魔(台)/我们的女巫手册(港)/新魔女游戏/魔女游戏:遗产
◎片  名 The Craft: Legacy
◎年  代 2020
◎产  地 美国
◎类  别 剧情 / 恐怖 / 奇幻
◎语  言 英语
◎上映日期 2020-10-28(美国)
◎IMDb评分 3.8/10 from 255 users
◎IMDb链接 https://www.imdb.com/title/tt4685762/
◎豆瓣评分 /10 from 0 users
◎豆瓣链接 https://movie.douban.com/subject/33384226/
◎导  演 佐伊·利斯特·琼斯 Zoe Lister Jones
◎编  剧 佐伊·利斯特·琼斯 Zoe Lister Jones / 丽恩·贾尼埃克 Leigh Janiak
◎主  演 卡莉·史派妮 Cailee Spaeny
      大卫·杜楚尼 David Duchovny
      米歇尔·莫纳汉 Michelle Monaghan
      吉第安·艾朵 Gideon Adlon
      尼古拉斯·加利齐纳 Nicholas Galitzine
      拉维·西蒙尼 Lovie Simone
      查尔斯·万德瓦尔特 Charles Vandervaart
      小唐纳德·麦克莱恩 Donald MacLean Jr.
      汉娜·戈登 Hannah Gordon
      朱利安·格雷 Julian Grey
      詹姆斯·马奇 James Madge

◎标  签 恐怖 | 奇幻 | 剧情 | 美国电影 | 美国 | 改编 | 翻拍 | 待看

◎简  介

  Blumhouse公司翻拍的经典恐怖片《魔女游戏》确定了导演人选,女导演佐伊·利斯特·琼斯(《创可贴》)将为新片撰写剧本并执导,值得一提的是Blumhouse CEO之前还因对女性导演的言论受到了非议。原版导演中,四个在学校中被孤立的女孩走到了一起,她们希望召唤出鬼神来让自己糟糕的生活得到改变,但怎么会有免费的午餐呢?

Video
ID : 1
Format : AVC
Format/Info : Advanced Video Codec
Format profile : [email protected]
Format settings : CABAC / 4 Ref Frames
Format settings, CABAC : Yes
Format settings, Reference frames : 4 frames
Codec ID : V_MPEG4/ISO/AVC
Duration : 1 h 34 min
Bit rate mode : Variable
Bit rate : 6 735 kb/s
Maximum bit rate : 14.0 Mb/s
Width : 1 920 pixels
Height : 1 080 pixels
Display aspect ratio : 16:9
Frame rate mode : Constant
Frame rate : 23.976 (24000/1001/189150) FPS
Color space : YUV
Chroma subsampling : 4:2:0
Bit depth : 8 bits
Scan type : Progressive
Bits/(Pixel*Frame) : 0.135
Stream size : 4.44 GiB (94%)
Default : Yes
Forced : No
Color range : Limited
Color primaries : BT.709
Transfer characteristics : BT.709
Matrix coefficients : BT.709

Audio
ID : 2
Format : E-AC-3
Format/Info : Enhanced AC-3
Commercial name : Dolby Digital Plus
Codec ID : A_EAC3
Duration : 1 h 34 min
Bit rate mode : Constant
Bit rate : 256 kb/s
Channel(s) : 6 channels
Channel layout : L R C LFE Ls Rs
Sampling rate : 48.0 kHz
Frame rate : 31.250 FPS (1536 SPF)
Compression mode : Lossy
Stream size : 173 MiB (4%)
Language : English
Service kind : Complete Main
Default : Yes
Forced : No

Text
ID : 3
Format : UTF-8
Codec ID : S_TEXT/UTF8
Codec ID/Info : UTF-8 Plain Text
Language : English
Default : No
Forced : No





1 个附件 售价 大小 下载 时间

The.Craft.Legacy.2020.1080p.WEB.H264-NAISU.zip 0 金币 48.50K 441 次 28天前

#1楼
发帖时间:2020-10-29 18:28:58   |   回复数:1
liyouchai
隐世仙人♂
谢谢楼主分享资源
27天前 #2楼
游客组