q3r3
武林高手

[更 早] [欧美] [科幻] [BD-1080P] 飞碟征空/孤独的地球 This.Island.Earth.1955.1080p.BluRay.x264-USURY 6.56GB

-->

帖子完整标题:飞碟征空/孤独的地球 This.Island.Earth.1955.1080p.BluRay.x264-USURY 6.56GB



◎译  名 飞碟征空 / 孤独的地球
◎片  名 This Island Earth
◎年  代 1955
◎产  地 美国
◎类  别 科幻
◎语  言 英语
◎上映日期 1955-06-15(USA)
◎IMDb评分 5.9/10 from 8659 users
◎IMDb链接 https://www.imdb.com/title/tt0047577
◎豆瓣评分 0/10 from 0 users
◎豆瓣链接 https://movie.douban.com/subject/1300412/
◎片  长 87 分钟
◎导  演 约瑟夫·纽曼 Joseph M. Newman
◎编  剧 Edward G. O'Callaghan / 富兰克林·库恩 Franklin Coen / F·理查德·琼斯 F. Richard Jones
◎主  演 Jeff Morrow
      Faith Domergue
      Rex Reason
      Lance Fuller


◎标  签 科幻 | 美国 | 1955 | 美国电影 | 1950s | 电影 | 寻找异域世界 | 1950

◎简  介

  Aliens come to Earth seeking scientists to help them in their war.

Video
ID : 1
Format : AVC
Format/Info : Advanced Video Codec
Format profile : [email protected]
Format settings : CABAC / 4 Ref Frames
Format settings, CABAC : Yes
Format settings, Reference frames : 4 frames
Codec ID : V_MPEG4/ISO/AVC
Duration : 1 h 26 min
Bit rate : 9 405 kb/s
Width : 1 920 pixels
Height : 1 040 pixels
Display aspect ratio : 1.85:1
Frame rate mode : Constant
Frame rate : 23.976 FPS
Color space : YUV
Chroma subsampling : 4:2:0
Bit depth : 8 bits
Scan type : Progressive
Bits/(Pixel*Frame) : 0.196
Stream size : 5.52 GiB (84%)
Writing library : x264 core 148 r2638 7599210
Encoding settings : cabac=1 / ref=4 / deblock=1:0:0 / analyse=0x3:0x133 / me=umh / subme=7 / psy=1 / psy_rd=1.00:0.00 / mixed_ref=1 / me_range=16 / chroma_me=1 / trellis=1 / 8x8dct=1 / cqm=0 / deadzone=21,11 / fast_pskip=0 / chroma_qp_offset=-2 / threads=6 / lookahead_threads=1 / sliced_threads=0 / nr=0 / decimate=1 / interlaced=0 / bluray_compat=0 / constrained_intra=0 / bframes=3 / b_pyramid=2 / b_adapt=2 / b_bias=0 / direct=3 / weightb=1 / open_gop=0 / weightp=2 / keyint=250 / keyint_min=23 / scenecut=40 / intra_refresh=0 / rc_lookahead=50 / rc=2pass / mbtree=1 / bitrate=9405 / ratetol=1.0 / qcomp=0.60 / qpmin=0 / qpmax=69 / qpstep=4 / cplxblur=20.0 / qblur=0.5 / ip_ratio=1.40 / aq=1:1.00
Language : English
Default : Yes
Forced : No

Audio
ID : 2
Format : DTS
Format/Info : Digital Theater Systems
Codec ID : A_DTS
Duration : 1 h 26 min
Bit rate mode : Constant
Bit rate : 1 509 kb/s
Channel(s) : 6 channels
Channel(s)_Original : 3 channels
ChannelLayout_Original : L R LFE
Sampling rate : 48.0 kHz
Frame rate : 93.750 FPS (512 SPF)
Bit depth : 24 bits
Compression mode : Lossy
Stream size : 928 MiB (14%)
Language : English
Default : Yes
Forced : No

Menu
00:00:00.000 : en:00:00:00.000
00:00:14.056 : en:00:00:14.056
00:01:15.075 : en:00:01:15.075
00:01:18.787 : en:00:01:18.787
00:10:06.606 : en:00:10:06.606
00:32:08.927 : en:00:32:08.927
00:46:00.758 : en:00:46:00.758
00:50:57.054 : en:00:50:57.054
00:59:20.557 : en:00:59:20.557
01:06:38.995 : en:01:06:38.995
01:17:49.665 : en:01:17:49.665
01:25:32.085 : en:01:25:32.085





1 个附件 售价 大小 下载 时间

This.Island.Earth.1955.1080p.BluRay.x264-USURY.zip 0 金币 34.26K 154 次 2天前

#1楼
发帖时间:2020-08-02 09:46:07   |   回复数:2
liyouchai
隐世仙人♂
谢谢楼主分享资源
2天前 #2楼
911degrees
隐世仙人♂
非常感谢,谢谢分享
2天前 #3楼
游客组