q3r3
武林高手

[2013] [欧美] [其他] [BD-1080P] 粒子狂热/粒子烧 Particle.Fever.2013.1080p.BluRay.x264-USURY 7.64GB

-->

帖子完整标题:粒子狂热/粒子烧 Particle.Fever.2013.1080p.BluRay.x264-USURY 7.64GB



◎译  名 粒子狂热 / 粒子烧 / 追踪终极粒子
◎片  名 Particle Fever
◎年  代 2013
◎产  地 美国
◎类  别 纪录片
◎语  言 英语
◎上映日期 2013-06-14(谢菲尔德纪录片影展) / 2014-03-07(美国)
◎IMDb评分 7.4/10 from 7103 users
◎IMDb链接 https://www.imdb.com/title/tt1385956
◎豆瓣评分 8.9/10 from 1495 users
◎豆瓣链接 https://movie.douban.com/subject/3569996/
◎导  演 Mark Levinson
◎主  演 Martin Aleksa
      Nima Arkani-Hamed
      Savas Dimopoulos
      Monica Dunford
      Fabiola Gianotti
      David Kaplan
      Mike Lamont


◎标  签 纪录片 | 物理 | 科学 | 美国 | 希格斯粒子 | 大型强子对撞机 | 科学前沿 | Documentary

◎简  介

  Imagine being able to watch as Edison turned on the first light bulb, or as Franklin received his first jolt of electricity.
  For the first time, a film gives audiences a front row seat to a significant and inspiring scientific breakthrough as it happens. Particle Fever follows six brilliant scientists during the launch of the Large Hadron Collider, marking the start-up of the biggest and most expensive experiment in the history of the planet, pushing the edge of human innovation.
  As they seek to unravel the mysteries of the universe, 10,000 scientists from over 100 countries joined forces in pursuit of a single goal: to recreate conditions that existed just moments after the Big Bang and find the Higgs boson, potentially explaining the origin of all matter. But our heroes confront an even bigger challenge: have we reached our limit in understanding why we exist?
  Directed by Mark Levinson, a physicist turned filmmaker, from the inspiration and initiative of producer David Kaplan and masterfully edited by Walter Murch (Apocalypse Now, The English Patient, The Godfather trilogy), Particle Fever is a celebration of discovery, revealing the very human stories behind this epic machine.

Video
ID : 1
Format : AVC
Format/Info : Advanced Video Codec
Format profile : [email protected]
Format settings : CABAC / 4 Ref Frames
Format settings, CABAC : Yes
Format settings, Reference frames : 4 frames
Codec ID : V_MPEG4/ISO/AVC
Duration : 1 h 39 min
Bit rate : 9 513 kb/s
Width : 1 920 pixels
Height : 1 080 pixels
Display aspect ratio : 16:9
Frame rate mode : Constant
Frame rate : 24.000 FPS
Color space : YUV
Chroma subsampling : 4:2:0
Bit depth : 8 bits
Scan type : Progressive
Bits/(Pixel*Frame) : 0.191
Stream size : 6.60 GiB (86%)
Writing library : x264 core 146 r2538 121396c
Encoding settings : cabac=1 / ref=4 / deblock=1:-1:-1 / analyse=0x3:0x113 / me=umh / subme=8 / psy=1 / psy_rd=1.00:0.15 / mixed_ref=1 / me_range=16 / chroma_me=1 / trellis=1 / 8x8dct=1 / cqm=0 / deadzone=21,11 / fast_pskip=0 / chroma_qp_offset=-3 / threads=6 / lookahead_threads=1 / sliced_threads=0 / nr=0 / decimate=1 / interlaced=0 / bluray_compat=0 / constrained_intra=0 / bframes=3 / b_pyramid=2 / b_adapt=2 / b_bias=0 / direct=3 / weightb=1 / open_gop=0 / weightp=2 / keyint=250 / keyint_min=24 / scenecut=40 / intra_refresh=0 / rc_lookahead=50 / rc=2pass / mbtree=1 / bitrate=9513 / ratetol=1.0 / qcomp=0.60 / qpmin=0 / qpmax=69 / qpstep=4 / cplxblur=20.0 / qblur=0.5 / ip_ratio=1.40 / aq=1:1.00
Language : English
Default : Yes
Forced : No

Audio
ID : 2
Format : DTS
Format/Info : Digital Theater Systems
Codec ID : A_DTS
Duration : 1 h 39 min
Bit rate mode : Constant
Bit rate : 1 509 kb/s
Channel(s) : 6 channels
Channel layout : C L R Ls Rs LFE
Sampling rate : 48.0 kHz
Frame rate : 93.750 FPS (512 SPF)
Bit depth : 24 bits
Compression mode : Lossy
Stream size : 1.05 GiB (14%)
Language : English
Default : Yes
Forced : No

Menu
00:00:00.000 : en:00:00:00.000
00:12:02.042 : en:00:12:02.042
00:24:35.250 : en:00:24:35.250
00:37:21.833 : en:00:37:21.833
00:51:07.250 : en:00:51:07.250
01:04:32.667 : en:01:04:32.667
01:16:23.500 : en:01:16:23.500
01:31:11.042 : en:01:31:11.042





1 个附件 售价 大小 下载 时间

Particle.Fever.2013.1080p.BluRay.x264-USURY.zip 0 金币 38.85K 231 次 6天前

#1楼
发帖时间:2020-08-02 09:39:44   |   回复数:0
游客组