squallzhao
一派掌门

[2018] [其他] [剧情] [BD-1080P] 人工性智能 A.I.Rising.2018.1080p.BluRay.x264.DTS-HD.MA.5.1-CHD 9.04GB

-->

帖子完整标题:人工性智能 A.I.Rising.2018.1080p.BluRay.x264.DTS-HD.MA.5.1-CHD 9.04GB



◎译  名 人工性智能 / A.I. Rising / 太空两性指南 / 智能崛起 / 爱上太空女神(台)
◎片  名 Ederlezi Rising
◎年  代 2018
◎产  地 塞尔维亚
◎类  别 剧情 / 爱情 / 科幻
◎语  言 英语
◎上映日期 2018-02-25(贝尔格莱德电影节)
◎IMDb评分 5.4/10 from 7024 users
◎IMDb链接 https://www.imdb.com/title/tt5215088
◎豆瓣评分 5.4/10 from 3179 users
◎豆瓣链接 https://movie.douban.com/subject/30149864/
◎片  长 85分钟
◎导  演 拉扎尔·博德罗扎 Lazar Bodro?a
◎编  剧 佐兰·内斯科维奇 Zoran Neskovic / 迪米特里耶·沃伊诺夫 Dimitrije Vojnov
◎主  演 塞巴斯蒂安·卡瓦扎 Sebastian Cavazza
      斯托雅 Stoya
      玛鲁萨·马杰尔 Marusa Majer
      科斯蒂·贝斯特曼 Kirsty Besterman


◎标  签 科幻 | 情色 | 塞尔维亚 | 人性 | 爱情 | 2018 | 性感 | 美国

◎简  介

  埃德尔兹·瑞辛是一部激动人心的科幻爱情小说,讲述了跨国公司埃德尔兹公司在不久的将来对半人马座阿尔法进行的开创性太空任务。埃德雷兹招募了一名在新改革的未来苏联受训的斯拉夫宇航员米卢,并与尼曼尼(Nimani)一同前往,尼曼尼是一名女性机器人,旨在满足他的任何愿望。

Video
ID : 1
Format : AVC
Format/Info : Advanced Video Codec
Format profile : [email protected]
Format settings : CABAC / 4 Ref Frames
Format settings, CABAC : Yes
Format settings, Reference frames : 4 frames
Codec ID : V_MPEG4/ISO/AVC
Duration : 1 h 26 min
Bit rate : 11.3 Mb/s
Width : 1 920 pixels
Height : 720 pixels
Display aspect ratio : 2.667
Frame rate mode : Constant
Frame rate : 23.976 (24000/1001/189150) FPS
Color space : YUV
Chroma subsampling : 4:2:0
Bit depth : 8 bits
Scan type : Progressive
Bits/(Pixel*Frame) : 0.340
Stream size : 6.81 GiB (75%)
Writing library : x264 core 157 r2969 d4099dd
Encoding settings : cabac=1 / ref=4 / deblock=1:-3:-3 / analyse=0x3:0x133 / me=umh / subme=11 / psy=1 / psy_rd=1.00:0.00 / mixed_ref=1 / me_range=24 / chroma_me=1 / trellis=2 / 8x8dct=1 / cqm=0 / deadzone=21,11 / fast_pskip=0 / chroma_qp_offset=-2 / threads=9 / lookahead_threads=2 / sliced_threads=0 / nr=0 / decimate=1 / interlaced=0 / bluray_compat=0 / constrained_intra=0 / bframes=12 / b_pyramid=2 / b_adapt=2 / b_bias=0 / direct=3 / weightb=1 / open_gop=0 / weightp=2 / keyint=300 / keyint_min=24 / scenecut=40 / intra_refresh=0 / rc=crf / mbtree=0 / crf=18.0 / qcomp=0.60 / qpmin=0 / qpmax=69 / qpstep=4 / ip_ratio=1.40 / pb_ratio=1.30 / aq=3:0.80
Language : English
Default : Yes
Forced : No

Audio
ID : 2
Format : DTS XLL
Format/Info : Digital Theater Systems
Commercial name : DTS-HD Master Audio
Codec ID : A_DTS
Duration : 1 h 26 min
Bit rate mode : Variable
Bit rate : 3 690 kb/s
Channel(s) : 6 channels
Channel layout : C L R Ls Rs LFE
Sampling rate : 48.0 kHz
Frame rate : 93.750 FPS (512 SPF)
Bit depth : 24 bits
Compression mode : Lossless
Stream size : 2.23 GiB (25%)
Language : English
Default : Yes
Forced : No

Text
ID : 3
Format : UTF-8
Codec ID : S_TEXT/UTF8
Codec ID/Info : UTF-8 Plain Text
Duration : 1 h 18 min
Bit rate : 42 b/s
Count of elements : 697
Stream size : 24.6 KiB (0%)
Language : English
Default : Yes
Forced : No





1 个附件 售价 大小 下载 时间

A.I.Rising.2018.1080p.BluRay.x264.DTS-HD.MA.5.1-CHD.zip 0 金币 45.84K 1127 次 6天前

#1楼
发帖时间:2020-08-02 09:14:57   |   回复数:1
ahsayuni
武林高手
谢谢楼主分享!!
5天前 #2楼
游客组