squallzhao
一派掌门

[2017] [其他] [其他] [BD-1080P] 我是希斯·莱杰 I.Am.Heath.Ledger.2017.DOCU.1080p.BluRay.x264-PSYCHD 6.58GB

-->

帖子完整标题:我是希斯·莱杰 I.Am.Heath.Ledger.2017.DOCU.1080p.BluRay.x264-PSYCHD 6.58GB



◎译  名 我是希斯·莱杰
◎片  名 I Am Heath Ledger
◎年  代 2017
◎产  地 加拿大
◎类  别 纪录片 / 传记
◎语  言 英语
◎上映日期 2017-04-23(翠贝卡电影节) / 2017-05-17(美国)
◎IMDb评分 7.4/10 from 5954 users
◎IMDb链接 https://www.imdb.com/title/tt6739646
◎豆瓣评分 8.1/10 from 2495 users
◎豆瓣链接 https://movie.douban.com/subject/26997658/
◎片  长 90分钟
◎导  演 阿德里安·比滕赫伊斯 Adrian Buitenhuis / 德里克·默里 Derik Murray
◎编  剧 哈特·斯奈德 Hart Snider
◎主  演 希斯·莱杰 Heath Ledger
      娜奥米·沃茨 Naomi Watts
      本·门德尔森 Ben Mendelsohn
      杰曼·翰苏 Djimon Hounsou
      埃米尔·赫施 Emile Hirsch
      李安 Ang Lee
      凯瑟琳·哈德威克 Catherine Hardwicke
      本.哈勃 Ben Harper
      爱德华·拉奇曼 Edward Lachman


◎标  签 纪录片 | 希斯·莱杰 | 希斯莱杰 | 传记 | 2017 | 美国 | 小丑 | 加拿大

◎简  介

  Spike TV将在今年5月播出纪录片[我是希斯·莱杰],镜头对准这位英年早逝的传奇男星。杰克·吉伦哈尔、米歇尔·威廉姆斯等莱杰生前的圈中亲朋好友,将在片中分享他们关于希斯·莱杰的独家记忆。据悉,莱杰与威廉姆斯的女儿玛蒂尔达也有望出镜。该系列纪录片还包括[我是李小龙]等。

Video
ID : 1
Format : AVC
Format/Info : Advanced Video Codec
Format profile : [email protected]
Format settings : CABAC / 4 Ref Frames
Format settings, CABAC : Yes
Format settings, Reference frames : 4 frames
Codec ID : V_MPEG4/ISO/AVC
Duration : 1 h 31 min
Bit rate : 8 766 kb/s
Width : 1 920 pixels
Height : 1 080 pixels
Display aspect ratio : 16:9
Frame rate mode : Constant
Frame rate : 23.976 (24000/1001/189150) FPS
Color space : YUV
Chroma subsampling : 4:2:0
Bit depth : 8 bits
Scan type : Progressive
Bits/(Pixel*Frame) : 0.176
Stream size : 5.46 GiB (83%)
Writing library : x264 core 150 r2833 df79067
Encoding settings : cabac=1 / ref=4 / deblock=1:-3:-3 / analyse=0x3:0x113 / me=umh / subme=8 / psy=1 / psy_rd=1.00:0.00 / mixed_ref=1 / me_range=16 / chroma_me=1 / trellis=1 / 8x8dct=1 / cqm=0 / deadzone=21,11 / fast_pskip=1 / chroma_qp_offset=-2 / threads=24 / lookahead_threads=4 / sliced_threads=0 / nr=0 / decimate=1 / interlaced=0 / bluray_compat=0 / constrained_intra=0 / bframes=3 / b_pyramid=2 / b_adapt=2 / b_bias=0 / direct=3 / weightb=1 / open_gop=0 / weightp=2 / keyint=240 / keyint_min=24 / scenecut=40 / intra_refresh=0 / rc_lookahead=50 / rc=2pass / mbtree=1 / bitrate=8766 / ratetol=1.0 / qcomp=0.60 / qpmin=0 / qpmax=69 / qpstep=4 / cplxblur=20.0 / qblur=0.5 / ip_ratio=1.40 / aq=3:0.80
Default : Yes
Forced : No
Statistics Tags Issue : no_variable_data 1970-01-01 00:00:00 / no_variable_data 2010-02-22 21:41:29
FromStats_BitRate : 8763211
FromStats_Duration : 01:31:22.019000000
FromStats_FrameCount : 131437
FromStats_StreamSize : 6005011441

Audio
ID : 2
Format : DTS
Format/Info : Digital Theater Systems
Codec ID : A_DTS
Duration : 1 h 31 min
Bit rate mode : Constant
Bit rate : 1 509 kb/s
Channel(s) : 6 channels
Channel layout : C L R Ls Rs LFE
Sampling rate : 48.0 kHz
Frame rate : 93.750 FPS (512 SPF)
Bit depth : 24 bits
Compression mode : Lossy
Stream size : 986 MiB (15%)
Language : English
Default : Yes
Forced : No
Statistics Tags Issue : no_variable_data 1970-01-01 00:00:00 / no_variable_data 2010-02-22 21:41:29
FromStats_BitRate : 1509000
FromStats_Duration : 01:31:22.016000000
FromStats_FrameCount : 513939
FromStats_StreamSize : 1034045268

Text #1
ID : 3
Format : UTF-8
Codec ID : S_TEXT/UTF8
Codec ID/Info : UTF-8 Plain Text
Language : English
Default : No
Forced : No
Statistics Tags Issue : no_variable_data 1970-01-01 00:00:00 / no_variable_data 2010-02-22 21:41:29
FromStats_BitRate : 85
FromStats_Duration : 01:28:42.151000000
FromStats_FrameCount : 1686
FromStats_StreamSize : 56732

Text #2
ID : 4
Format : UTF-8
Codec ID : S_TEXT/UTF8
Codec ID/Info : UTF-8 Plain Text
Title : SDH
Language : English
Default : No
Forced : No
Statistics Tags Issue : no_variable_data 1970-01-01 00:00:00 / no_variable_data 2010-02-22 21:41:29
FromStats_BitRate : 88
FromStats_Duration : 01:28:43.986000000
FromStats_FrameCount : 1730
FromStats_StreamSize : 58778

Menu
00:00:00.000 : en:00:00:00.000
00:07:13.266 : en:00:07:13.266
00:15:50.449 : en:00:15:50.449
00:23:04.633 : en:00:23:04.633
00:30:35.292 : en:00:30:35.292
00:38:58.836 : en:00:38:58.836
00:45:49.205 : en:00:45:49.205
00:53:54.606 : en:00:53:54.606
01:01:18.967 : en:01:01:18.967
01:07:48.064 : en:01:07:48.064
01:17:10.376 : en:01:17:10.376
01:27:34.833 : en:01:27:34.833





1 个附件 售价 大小 下载 时间

I.Am.Heath.Ledger.2017.DOCU.1080p.BluRay.x264-PSYCHD.zip 0 金币 132.27K 231 次 6天前

#1楼
发帖时间:2020-08-02 09:05:52   |   回复数:1
kola13
武林盟主
感谢分享
5天前 #2楼
游客组