coor
一代宗师

[更 早] [欧美] [惊悚] [BD-1080P] 双面女郎/叠影狂花 Single.White.Female.1992.1080p.BluRay.x264.DTS-FGT 9.81GB

-->



◎译  名 双面女郎 / 叠影狂花
◎片  名 Single White Female
◎年  代 1992
◎产  地 美国
◎类  别 惊悚
◎语  言 英语
◎上映日期 1992-08-14
◎IMDb评分 6.4/10 from 31066 users
◎IMDb链接 https://www.imdb.com/title/tt0105414
◎豆瓣评分 6.8/10 from 662 users
◎豆瓣链接 https://movie.douban.com/subject/1293772/
◎片  长 107分钟
◎导  演 Barbet Schroeder
◎编  剧 Don Roos
◎主  演 Bridget Fonda
      Jennifer Jason Leigh
      Steven Weber


◎标  签 惊悚 | 悬疑 | 美国 | 女性 | 美国电影 | 心理 | 1992 | 驚悚

◎简  介

  愛麗憎恨男友不忠,將他掃地出門,但是強烈的不全感又使她害怕獨居,就在她最需要陪伴時,海蒂出現了,這位害羞的新房客成了她的好姐妹,她們一塊購物、進餐、交換衣服、分享一切。直到愛麗重回男友懷抱,海蒂覺得被利用,她的地將被人取代,憤怒使她變得行為異常,染髮、改變造型,甚至一舉一動都在模仿愛麗,似乎是想取而代之。於是愛麗深入追查,發現事實的真象,而她的生命亦受到威脅???

Video
ID : 1
Format : AVC
Format/Info : Advanced Video Codec
Format profile : [email protected]
Format settings : CABAC / 4 Ref Frames
Format settings, CABAC : Yes
Format settings, ReFrames : 4 frames
Codec ID : V_MPEG4/ISO/AVC
Duration : 1 h 47 min
Bit rate : 11.5 Mb/s
Width : 1 916 pixels
Height : 1 036 pixels
Display aspect ratio : 1.85:1
Frame rate mode : Constant
Frame rate : 23.976 (24000/1001/189150) FPS
Color space : YUV
Chroma subsampling : 4:2:0
Bit depth : 8 bits
Scan type : Progressive
Bits/(Pixel*Frame) : 0.242
Stream size : 8.67 GiB (88%)
Title : Single.White.Female.1992.1080p.BluRay.x264.DTS-FGT
Writing library : x264 core 148 r2748 97eaef2
Encoding settings : cabac=1 / ref=4 / deblock=1:-2:-2 / analyse=0x3:0x113 / me=umh / subme=9 / psy=1 / psy_rd=1.00:0.15 / mixed_ref=1 / me_range=16 / chroma_me=1 / trellis=2 / 8x8dct=1 / cqm=0 / deadzone=21,11 / fast_pskip=1 / chroma_qp_offset=-3 / threads=24 / lookahead_threads=3 / sliced_threads=0 / nr=0 / decimate=1 / interlaced=0 / bluray_compat=0 / constrained_intra=0 / bframes=3 / b_pyramid=2 / b_adapt=1 / b_bias=0 / direct=3 / weightb=1 / open_gop=0 / weightp=2 / keyint=250 / keyint_min=25 / scenecut=40 / intra_refresh=0 / rc_lookahead=50 / rc=2pass / mbtree=1 / bitrate=11500 / ratetol=1.0 / qcomp=0.60 / qpmin=0 / qpmax=69 / qpstep=4 / cplxblur=20.0 / qblur=0.5 / vbv_maxrate=31250 / vbv_bufsize=31250 / nal_hrd=none / filler=0 / ip_ratio=1.40 / aq=1:1.00
Language : English
Default : Yes
Forced : No

Audio
ID : 2
Format : DTS
Format/Info : Digital Theater Systems
Codec ID : A_DTS
Duration : 1 h 47 min
Bit rate mode : Constant
Bit rate : 1 509 kb/s
Channel(s) : 2 channels
Channel layout : L R
Sampling rate : 48.0 kHz
Frame rate : 93.750 FPS (512 SPF)
Bit depth : 24 bits
Compression mode : Lossy
Stream size : 1.14 GiB (12%)
Title : Single.White.Female.1992.1080p.BluRay.x264.DTS-FGT
Language : English
Default : Yes
Forced : No

Text
ID : 3
Format : UTF-8
Codec ID : S_TEXT/UTF8
Codec ID/Info : UTF-8 Plain Text
Duration : 1 h 45 min
Bit rate : 46 b/s
Count of elements : 1522
Stream size : 35.9 KiB (0%)
Language : English
Default : Yes
Forced : No

Menu
00:00:00.000 : en:Chapter 01
00:06:55.832 : en:Chapter 02
00:17:41.143 : en:Chapter 03
00:24:45.859 : en:Chapter 04
00:34:18.347 : en:Chapter 05
00:44:07.853 : en:Chapter 06
00:52:37.821 : en:Chapter 07
01:04:35.413 : en:Chapter 08
01:15:25.312 : en:Chapter 09
01:24:10.754 : en:Chapter 10
01:35:54.749 : en:Chapter 11
01:45:07.551 : en:Chapter 12
01:47:55.719 : en:Chapter 13





2 个附件 售价 大小 下载 时间

Iron.Man.And.Hulk.Heroes.United.2013.1080p.BluRay.x264.DTS-FGT.torrent 0 金币 95.95K 756 次 1月前

Single.White.Female.1992.1080p.BluRay.x264.DTS-FGT.torrent 0 金币 98.63K 973 次 1月前

#1楼
发帖时间:2020-07-06 09:51:49   |   回复数:1
911degrees
隐世仙人♂
非常感谢,谢谢分享
1月前 #2楼
游客组