coor
一代宗师

[2011] [欧美] [其他] [BD-1080P] 科曼的世界/好莱坞B片天王罗杰科曼 Cormans.World.Exploits.of.a.Hollywood.Rebel.2011.1080p.BluRay.

-->



◎译  名 科曼的世界 / 好莱坞B片天王罗杰科曼
◎片  名 Corman’s World: Exploits Of A Hollywood Rebel
◎年  代 2011
◎产  地 美国
◎类  别 纪录片
◎上映日期 2011
◎IMDb评分 7.5/10 from 2223 users
◎IMDb链接 https://www.imdb.com/title/tt1185371
◎豆瓣评分 8.6/10 from 73 users
◎豆瓣链接 https://movie.douban.com/subject/5186049/
◎导  演 Alex Stapleton
◎编  剧 Gregory Locklear

◎标  签 纪录片 | 美国 | 美国电影 | RogerCorman | 2011 | Documentary | Roger_Corman | 电影

◎简  介

  叱吒好萊塢數十年、製作執導作品無以計數的美國「鬼才製片家」羅傑科曼,以超低預算、拍攝速度
  快而聞名,從一九五九年至今所拍攝的電影已超過四百部,有些影片甚至在兩天內完成。七○年代他
  拍攝的剝削電影在美國盛行,以爆破、怪獸、裸女、kuso 特效、噴血而著稱,技壓群雄,小成本大創
  意的製片原則,也讓他號稱從影以來「從未損失過一毛錢」。
  雖然自己拍片摳門又通俗,但獨排眾議資助費里尼拍攝藝術鉅作,以及《逍遙騎士》的完成,製作的
  作品從不可思議的cult 片極致,到影像美學的藝術精髓,徹底體現了電影創作的自由精神。全片以深
  入的追訪記錄,完整呈現了這位電影大王獨到的創作精神,包括馬丁史柯西斯、勞勃狄尼洛、傑克尼
  克遜,都在片中暢談當年被提拔的內幕和對羅傑科曼的崇敬感佩。

Video
ID : 1
Format : AVC
Format/Info : Advanced Video Codec
Format profile : [email protected]
Format settings, CABAC : Yes
Format settings, ReFrames : 4 frames
Codec ID : V_MPEG4/ISO/AVC
Duration : 1h 30mn
Bit rate : 11.5 Mbps
Width : 1 920 pixels
Height : 1 080 pixels
Display aspect ratio : 16:9
Frame rate mode : Constant
Frame rate : 23.976 (24000/1001) fps
Color space : YUV
Chroma subsampling : 4:2:0
Bit depth : 8 bits
Scan type : Progressive
Bits/(Pixel*Frame) : 0.231
Stream size : 6.91 GiB (86%)
Writing library : x264 core 148 r2694 3b70645
Encoding settings : cabac=1 / ref=4 / deblock=1:-2:-2 / analyse=0x3:0x113 / me=umh / subme=7 / psy=1 / psy_rd=1.00:0.15 / mixed_ref=1 / me_range=16 / chroma_me=1 / trellis=1 / 8x8dct=1 / cqm=0 / deadzone=21,11 / fast_pskip=1 / chroma_qp_offset=-3 / threads=40 / lookahead_threads=3 / sliced_threads=0 / nr=0 / decimate=1 / interlaced=0 / bluray_compat=0 / constrained_intra=0 / bframes=3 / b_pyramid=2 / b_adapt=2 / b_bias=0 / direct=3 / weightb=1 / open_gop=0 / weightp=2 / keyint=250 / keyint_min=25 / scenecut=40 / intra_refresh=0 / rc_lookahead=50 / rc=abr / mbtree=1 / bitrate=11500 / ratetol=1.0 / qcomp=0.60 / qpmin=0 / qpmax=69 / qpstep=4 / vbv_maxrate=31250 / vbv_bufsize=31250 / nal_hrd=none / filler=0 / ip_ratio=1.40 / aq=1:1.00
Language : English
Default : Yes
Forced : No

Audio
ID : 2
Format : DTS
Format/Info : Digital Theater Systems
Mode : 16
Format settings, Endianness : Big
Codec ID : A_DTS
Duration : 1h 30mn
Bit rate mode : Constant
Bit rate : 1 536 Kbps
Channel(s) : 6 channels
Channel positions : Front: L C R, Side: L R, LFE
Sampling rate : 48.0 KHz
Frame rate : 93.750 fps (512 spf)
Bit depth : 16 bits
Compression mode : Lossy
Stream size : 989 MiB (12%)
Language : English
Default : Yes
Forced : No

Text
ID : 3
Format : UTF-8
Codec ID : S_TEXT/UTF8
Codec ID/Info : UTF-8 Plain Text
Language : English
Default : Yes
Forced : No

Menu
00:00:00.000 : en:Chapter 01
00:03:26.414 : en:Chapter 02
00:08:47.318 : en:Chapter 03
00:15:04.445 : en:Chapter 04
00:20:23.889 : en:Chapter 05
00:32:11.846 : en:Chapter 06
00:42:44.645 : en:Chapter 07
00:50:10.924 : en:Chapter 08
00:57:37.078 : en:Chapter 09
01:04:28.072 : en:Chapter 10
01:17:01.116 : en:Chapter 11
01:24:57.842 : en:Chapter 12





1 个附件 售价 大小 下载 时间

Cormans.World.Exploits.of.a.Hollywood.Rebel.2011.1080p.BluRay.x264.DTS-FGT.torrent 0 金币 81.03K 336 次 29天前

#1楼
发帖时间:2020-07-06 09:40:23   |   回复数:1
911degrees
隐世仙人♂
非常感谢,谢谢分享
29天前 #2楼
游客组