coor
一代宗师

[2010] [欧美] [其他] [BD-1080P] 丛林大反攻3/打猎季节3 Open.Season.3.2010.1080p.BluRay.x264.DTS-FGT 4.97GB

-->



◎译  名 丛林大反攻3 / 打猎季节3(台) / 森林反恐队3(港) / 狩猎季3 / 狩猎季节3
◎片  名 Open Season 3
◎年  代 2010
◎产  地 美国
◎类  别 动画
◎语  言 英语
◎上映日期 2010-01-28(美国)
◎IMDb评分 5.1/10 from 9718 users
◎IMDb链接 https://www.imdb.com/title/tt1646926
◎豆瓣评分 6.5/10 from 4213 users
◎豆瓣链接 https://movie.douban.com/subject/5152678/
◎片  长 74分钟
◎导  演 Cody Cameron
◎编  剧 David I. Stern
◎主  演 Matthew J. Munn
      Nika Futterman
      Matthew W. Taylor


◎标  签 动画 | 美国 | 喜剧 | 动画片 | 2010 | 美国电影 | 卡通 | 电影

◎简  介

  讲述埃利奥特和他们所有的森林朋友一个全新的冒险,Boog他决定自己旅行,一个酷似马戏团的灰熊,接管他的位置。 布格的朋友准备把他从俄国旅行马戏团带回家。一连串有趣的事情。

Video
ID : 1
Format : AVC
Format/Info : Advanced Video Codec
Format profile : [email protected]
Format settings : CABAC / 4 Ref Frames
Format settings, CABAC : Yes
Format settings, Reference frames : 4 frames
Codec ID : V_MPEG4/ISO/AVC
Duration : 1 h 14 min
Bit rate : 8 083 kb/s
Width : 1 920 pixels
Height : 1 080 pixels
Display aspect ratio : 16:9
Frame rate mode : Constant
Frame rate : 23.976 FPS
Color space : YUV
Chroma subsampling : 4:2:0
Bit depth : 8 bits
Scan type : Progressive
Bits/(Pixel*Frame) : 0.163
Stream size : 4.09 GiB (82%)
Writing library : x264 core 107 r1766 f9f0035
Encoding settings : cabac=1 / ref=4 / deblock=1:-2:-2 / analyse=0x3:0x113 / me=umh / subme=10 / psy=1 / psy_rd=1.00:0.00 / mixed_ref=1 / me_range=48 / chroma_me=1 / trellis=2 / 8x8dct=1 / cqm=2 / deadzone=21,11 / fast_pskip=0 / chroma_qp_offset=-1 / threads=12 / sliced_threads=0 / nr=0 / decimate=1 / interlaced=0 / constrained_intra=0 / bframes=6 / b_pyramid=2 / b_adapt=2 / b_bias=0 / direct=3 / weightb=1 / open_gop=0 / weightp=2 / keyint=250 / keyint_min=23 / scenecut=40 / intra_refresh=0 / rc_lookahead=40 / rc=2pass / mbtree=0 / bitrate=8083 / ratetol=1.0 / qcomp=0.70 / qpmin=10 / qpmax=51 / qpstep=4 / cplxblur=20.0 / qblur=0.5 / vbv_maxrate=45000 / vbv_bufsize=40000 / ip_ratio=1.40 / pb_ratio=1.30 / aq=1:0.80 / nal_hrd=none
Language : English
Default : Yes
Forced : No

Audio
ID : 2
Format : DTS
Format/Info : Digital Theater Systems
Codec ID : A_DTS
Duration : 1 h 14 min
Bit rate mode : Constant
Bit rate : 1 509 kb/s
Channel(s) : 6 channels
Channel layout : C L R Ls Rs LFE
Sampling rate : 48.0 kHz
Frame rate : 93.750 FPS (512 SPF)
Bit depth : 24 bits
Compression mode : Lossy
Stream size : 805 MiB (16%)
Language : English
Default : Yes
Forced : No

Menu
00:00:00.000 : en:00:00:00.000
00:05:06.389 : en:00:05:06.389
00:08:07.654 : en:00:08:07.654
00:10:57.156 : en:00:10:57.156
00:17:48.067 : en:00:17:48.067
00:20:53.002 : en:00:20:53.002
00:23:23.736 : en:00:23:23.736
00:27:21.014 : en:00:27:21.014
00:34:31.861 : en:00:34:31.861
00:40:38.436 : en:00:40:38.436
00:45:48.663 : en:00:45:48.663
00:49:44.857 : en:00:49:44.857
00:54:03.866 : en:00:54:03.866
00:58:03.313 : en:00:58:03.313
01:03:22.799 : en:01:03:22.799
01:07:24.457 : en:01:07:24.457





1 个附件 售价 大小 下载 时间

Open.Season.3.2010.1080p.BluRay.x264.DTS-FGT.torrent 0 金币 100.04K 245 次 1月前

#1楼
发帖时间:2020-07-06 09:16:05   |   回复数:1
911degrees
隐世仙人♂
非常感谢,谢谢分享
1月前 #2楼
游客组