coor
一代宗师

[2018] [欧美] [喜剧] [BD-1080P] 清单 Alex.and.The.List.2018.1080p.BluRay.x264.DTS-FGT 10.21GB

-->



◎译  名 清单 / The List / 求婚清单
◎片  名 Alex & The List
◎年  代 2018
◎产  地 美国
◎类  别 喜剧 / 爱情
◎语  言 英语
◎上映日期 2018-05-04(美国)
◎IMDb评分 4.6/10 from 1025 users
◎IMDb链接 https://www.imdb.com/title/tt2905082
◎豆瓣评分 5.2/10 from 124 users
◎豆瓣链接 https://movie.douban.com/subject/25894290/
◎片  长 112分钟
◎导  演 哈里斯·古德伯格 Harris Goldberg
◎编  剧 哈里斯·古德伯格 Harris Goldberg / Kristen D'Alessio
◎主  演 凯伦·吉兰 Karen Gillan
      詹妮弗·莫里森 Jennifer Morrison
      朱丽叶·冈扎罗 Julie Gonzalo
      莱斯利-安·唐恩 Lesley-Anne Down
      派屈克·福吉特 Patrick Fugit
      艾迪·凯伊·托马斯 Eddie Kaye Thomas
      迈克尔·诺里 Michael Nouri
      亚伦·斯塔顿 Aaron Staton
      乔贝兹·威廉姆斯 JoBeth Williams
      鲍勃·冈顿 Bob Gunton
      维多利亚·田纳特 Victoria Tennant
      艾维·约斯特 Elvy Yost
      吉勒·马里尼 Gilles Marini
      Ryan O'Nan
      Dana Powell


◎标  签 爱情 | 美国 | 喜剧 | 2018 | 电影 | 强行把渣男给美化了 | 美国电影 | 一流

◎简  介

  可爱的训狗师埃里克斯(派屈克·福吉特饰)爱上聪明有才华的女人凯瑟琳(詹妮弗·莫里森饰),两人本到谈婚论嫁的地步,可是他们却开始反思他们的未来。

Video
ID : 1
Format : AVC
Format/Info : Advanced Video Codec
Format profile : [email protected]
Format settings : CABAC / 4 Ref Frames
Format settings, CABAC : Yes
Format settings, Reference frames : 4 frames
Codec ID : V_MPEG4/ISO/AVC
Duration : 1 h 52 min
Bit rate : 11.5 Mb/s
Width : 1 920 pixels
Height : 800 pixels
Display aspect ratio : 2.40:1
Frame rate mode : Constant
Frame rate : 23.976 (24000/1001/189150) FPS
Color space : YUV
Chroma subsampling : 4:2:0
Bit depth : 8 bits
Scan type : Progressive
Bits/(Pixel*Frame) : 0.312
Stream size : 9.02 GiB (88%)
Title : Alex.and.The.List.2018.1080p.BluRay.x264.DTS-FGT
Writing library : x264 core 148 r2795M aaa9aa8
Encoding settings : cabac=1 / ref=4 / deblock=1:-2:-2 / analyse=0x3:0x113 / me=umh / subme=9 / psy=1 / psy_rd=1.00:0.15 / mixed_ref=1 / me_range=16 / chroma_me=1 / trellis=2 / 8x8dct=1 / cqm=0 / deadzone=21,11 / fast_pskip=1 / chroma_qp_offset=-3 / threads=24 / lookahead_threads=3 / sliced_threads=0 / nr=0 / decimate=1 / interlaced=0 / bluray_compat=0 / constrained_intra=0 / bframes=3 / b_pyramid=2 / b_adapt=1 / b_bias=0 / direct=3 / weightb=1 / open_gop=0 / weightp=2 / keyint=250 / keyint_min=25 / scenecut=40 / intra_refresh=0 / rc_lookahead=50 / rc=2pass / mbtree=1 / bitrate=11500 / ratetol=1.0 / qcomp=0.60 / qpmin=0 / qpmax=69 / qpstep=4 / cplxblur=20.0 / qblur=0.5 / vbv_maxrate=31250 / vbv_bufsize=31250 / nal_hrd=none / filler=0 / ip_ratio=1.40 / aq=1:1.00
Language : English
Default : Yes
Forced : No

Audio
ID : 2
Format : DTS
Format/Info : Digital Theater Systems
Codec ID : A_DTS
Duration : 1 h 52 min
Bit rate mode : Constant
Bit rate : 1 509 kb/s
Channel(s) : 6 channels
Channel layout : C L R Ls Rs LFE
Sampling rate : 48.0 kHz
Frame rate : 93.750 FPS (512 SPF)
Bit depth : 24 bits
Compression mode : Lossy
Stream size : 1.18 GiB (12%)
Title : Alex.and.The.List.2018.1080p.BluRay.x264.DTS-FGT
Language : English
Default : No
Forced : No

Text
ID : 3
Format : UTF-8
Codec ID : S_TEXT/UTF8
Codec ID/Info : UTF-8 Plain Text
Duration : 1 h 52 min
Bit rate : 52 b/s
Count of elements : 1629
Stream size : 43.0 KiB (0%)
Language : English
Default : Yes
Forced : No

Menu
00:00:00.000 : en:Chapter 01
00:11:47.623 : en:Chapter 02
00:23:57.144 : en:Chapter 03
00:33:08.820 : en:Chapter 04
00:44:24.328 : en:Chapter 05
00:52:53.128 : en:Chapter 06
01:04:49.552 : en:Chapter 07
01:13:48.424 : en:Chapter 08
01:22:53.259 : en:Chapter 09
01:30:56.492 : en:Chapter 10
01:52:21.234 : en:Chapter 11





1 个附件 售价 大小 下载 时间

Alex.and.The.List.2018.1080p.BluRay.x264.DTS-FGT.torrent 0 金币 51.63K 217 次 6天前

#1楼
发帖时间:2020-07-01 13:59:22   |   回复数:1
911degrees
隐世仙人♂
非常感谢,谢谢分享
6天前 #2楼
游客组