coor
一代宗师

[2017] [其他] [喜剧] [BD-1080P] 公共教育 Adventures.in.Public.School.2017.1080p.BluRay.x264.DTS-HD.MA.5.1-FGT 9.10GB

-->



◎译  名 公共教育 / Adventures in Public School
◎片  名 Public Schooled
◎年  代 2017
◎产  地 美国 / 加拿大
◎类  别 喜剧
◎语  言 英语
◎上映日期 2017-09-09(多伦多电影节) / 2018-04-27(美国)
◎IMDb评分 5.8/10 from 1708 users
◎IMDb链接 https://www.imdb.com/title/tt3364264
◎豆瓣评分 5.4/10 from 115 users
◎豆瓣链接 https://movie.douban.com/subject/27073324/
◎片  长 86分钟
◎导  演 凯尔·赖德奥特 Kyle Rideout
◎编  剧 凯尔·赖德奥特 Kyle Rideout / 乔希·艾普斯汀 Josh Epstein
◎主  演 朱迪·格雷尔 Judy Greer
      丹尼尔·多尼 Daniel Doheny
      Siobhan Williams
      安德鲁·海尔 Andrew Herr
      Eva Day
      Doralynn Mui
      朴敏庆 Grace Park


◎标  签 青春 | 美国 | 喜剧 | 成长 | 加拿大 | 2018 | 2017 | 美国电影

◎简  介

  崇拜霍金的連恩希普生長在一個單親家庭,由於媽媽的過度保護,連恩一直以來都在家自學,為了完成「去劍橋跟霍金一起唸書,成為史上第二有名的天文學家」的心願,他得先通過高中同等資格的學力測驗。這天,他來到了位於公立高中的考場,當時他還不知道在他走過這幾扇門之後,他的人生將會徹底改變,宛如一場愛情宇宙大爆炸。他在西南側的殘障廁所附近邂逅了只有一隻腳的安娜塔西亞,愛情的力量讓他無論如何都想進這間公立高中就讀,於是這位超級學霸繳了白卷,讓他如願以償進入高中,然而缺乏社交能力的他,卻不停地鬧出笑話。原本是媽寶的他就像是月球,逐漸遠離母親般的地球,一年遠離3.87公分,越來越遠……

Video
ID : 1
Format : AVC
Format/Info : Advanced Video Codec
Format profile : [email protected]
Format settings : CABAC / 4 Ref Frames
Format settings, CABAC : Yes
Format settings, ReFrames : 4 frames
Codec ID : V_MPEG4/ISO/AVC
Duration : 1 h 26 min
Bit rate : 11.5 Mb/s
Width : 1 920 pixels
Height : 1 040 pixels
Display aspect ratio : 1.85:1
Frame rate mode : Constant
Frame rate : 23.976 (24000/1001/189150) FPS
Color space : YUV
Chroma subsampling : 4:2:0
Bit depth : 8 bits
Scan type : Progressive
Bits/(Pixel*Frame) : 0.240
Stream size : 6.92 GiB (76%)
Title : Adventures.in.Public.School.2017.1080p.BluRay.x264.DTS-HD.MA.5.1-FGT
Writing library : x264 core 148 r2795M aaa9aa8
Encoding settings : cabac=1 / ref=4 / deblock=1:-2:-2 / analyse=0x3:0x113 / me=umh / subme=9 / psy=1 / psy_rd=1.00:0.15 / mixed_ref=1 / me_range=16 / chroma_me=1 / trellis=2 / 8x8dct=1 / cqm=0 / deadzone=21,11 / fast_pskip=1 / chroma_qp_offset=-3 / threads=24 / lookahead_threads=3 / sliced_threads=0 / nr=0 / decimate=1 / interlaced=0 / bluray_compat=0 / constrained_intra=0 / bframes=3 / b_pyramid=2 / b_adapt=1 / b_bias=0 / direct=3 / weightb=1 / open_gop=0 / weightp=2 / keyint=250 / keyint_min=25 / scenecut=40 / intra_refresh=0 / rc_lookahead=50 / rc=2pass / mbtree=1 / bitrate=11500 / ratetol=1.0 / qcomp=0.60 / qpmin=0 / qpmax=69 / qpstep=4 / cplxblur=20.0 / qblur=0.5 / vbv_maxrate=31250 / vbv_bufsize=31250 / nal_hrd=none / filler=0 / ip_ratio=1.40 / aq=1:1.00
Language : English
Default : Yes
Forced : No

Audio
ID : 2
Format : DTS
Format/Info : Digital Theater Systems
Format profile : MA / Core
Codec ID : A_DTS
Duration : 1 h 26 min
Bit rate mode : Variable / Constant
Bit rate : 3 566 kb/s / 1 509 kb/s
Channel(s) : 6 channels
Channel positions : Front: L C R, Side: L R, LFE
Sampling rate : 48.0 kHz
Frame rate : 93.750 FPS (512 SPF)
Bit depth : 24 bits
Compression mode : Lossless / Lossy
Stream size : 2.15 GiB (24%)
Title : Adventures.in.Public.School.2017.1080p.BluRay.x264.DTS-HD.MA.5.1-FGT
Language : English
Default : Yes
Forced : No

Text #1
ID : 3
Format : UTF-8
Codec ID : S_TEXT/UTF8
Codec ID/Info : UTF-8 Plain Text
Duration : 1 h 23 min
Bit rate : 69 b/s
Count of elements : 1353
Stream size : 42.1 KiB (0%)
Title : English-SRT
Language : English
Default : Yes
Forced : No

Text #2
ID : 4
Format : PGS
Muxing mode : zlib
Codec ID : S_HDMV/PGS
Codec ID/Info : Picture based subtitle format used on BDs/HD-DVDs
Duration : 1 h 25 min
Bit rate : 93.3 kb/s
Count of elements : 3144
Stream size : 57.0 MiB (1%)
Title : English-PGS
Language : English
Default : No
Forced : No

Menu
00:00:00.000 : en:Chapter 01
00:11:27.520 : en:Chapter 02
00:21:30.247 : en:Chapter 03
00:30:40.588 : en:Chapter 04
00:43:32.234 : en:Chapter 05
00:55:08.847 : en:Chapter 06
01:03:46.531 : en:Chapter 07
01:13:10.177 : en:Chapter 08
01:26:07.912 : en:Chapter 09





1 个附件 售价 大小 下载 时间

Adventures.in.Public.School.2017.1080p.BluRay.x264.DTS-HD.MA.5.1-FGT.torrent 0 金币 91.63K 175 次 6天前

#1楼
发帖时间:2020-07-01 13:54:53   |   回复数:1
911degrees
隐世仙人♂
非常感谢,谢谢分享
6天前 #2楼
游客组