coor
一代宗师

[2018] [欧美] [惊悚] [BD-1080P] 真心话大冒险/死神游戏:TRUTH OR DARE Truth.or.Dare.2018.1080p.BluRay.x264.DTS-HD.MA.5.1-FGT

-->



◎译  名 真心话大冒险 / 死神游戏:TRUTH OR DARE(港)
◎片  名 Truth or Dare
◎年  代 2018
◎产  地 美国
◎类  别 惊悚 / 恐怖
◎语  言 英语
◎上映日期 2018-04-13(美国)
◎IMDb评分 5.2/10 from 43251 users
◎IMDb链接 https://www.imdb.com/title/tt6772950
◎豆瓣评分 6.2/10 from 9846 users
◎豆瓣链接 https://movie.douban.com/subject/26998315/
◎片  长 100分钟
◎导  演 杰夫·瓦德洛 Jeff Wadlow
◎编  剧 迈克尔·赖斯 Michael Reisz / 吉莉安·雅各布斯 Jillian Jacobs / 克里斯托弗·罗奇 Christopher Roach / 杰夫·瓦德洛 Jeff Wadlow
◎主  演 露西·海尔 Lucy Hale
      泰勒·珀西 Tyler Posey
      维奥莱特-比恩 Violett Beane
      司徒颂曦 Hayden Szeto
      索菲娅·阿里 Sophia Ali
      诺兰·杰拉德·冯克 Nolan Gerard Funk
      兰登·莱伯隆 Landon Liboiron
      山姆·勒纳 Sam Lerner
      汤姆·蔡 Tom Choi
      奥罗拉·佩里纽 Aurora Perrineau
      Gregg Daniel
      布莱德利·史密斯 Brady Smith
      Vera Taylor
      Ezmie Garcia
      安德鲁·霍华德 Andrew Howard
      奥马尔·莱瓦 Omar Leyva
      莱斯莉·斯特拉顿 Leslie Stratton
      Chasen Banks
      Marcie Jean
      Alexander Roberts
      Ellie Laufer
      摩根·林霍尔姆 Morgan Lindholm
      Ruben Garfias
      布拉德利·斯内德克 Bradley Snedeker
      蒂姆·内夫 Tim Neff
      乔·奥克曼 Joe Ochman
      Sierra Heuermann
      Dominic Vedder


◎标  签 惊悚 | 恐怖 | 美国 | 悬疑 | 2018 | 灵异 | 青春 | 超自然

◎简  介

  《美少女的谎言》主演露西·海尔有望加盟惊悚新片[真心话大冒险]。该片将由[海扁王2]导演杰夫·瓦德洛执导,并联袂克里斯托弗·罗奇([空中营救])共同操刀剧本。故事讲述一群大学生狂欢期间偶然玩起真心话大冒险,不料一股邪灵也随之而来。

Video
ID : 1
Format : AVC
Format/Info : Advanced Video Codec
Format profile : [email protected]
Format settings : CABAC / 5 Ref Frames
Format settings, CABAC : Yes
Format settings, ReFrames : 5 frames
Codec ID : V_MPEG4/ISO/AVC
Duration : 1 h 40 min
Bit rate : 9 386 kb/s
Width : 1 920 pixels
Height : 808 pixels
Display aspect ratio : 2.40:1
Frame rate mode : Constant
Frame rate : 23.976 FPS
Color space : YUV
Chroma subsampling : 4:2:0
Bit depth : 8 bits
Scan type : Progressive
Bits/(Pixel*Frame) : 0.252
Stream size : 6.59 GiB (71%)
Title : Truth.or.Dare.2018.1080p.BluRay.x264.DTS-HD.MA.5.1-FGT
Writing library : x264 core 155 r2901 7d0ff22
Encoding settings : cabac=1 / ref=5 / deblock=1:0:0 / analyse=0x3:0x133 / me=umh / subme=7 / psy=1 / psy_rd=1.00:0.00 / mixed_ref=1 / me_range=16 / chroma_me=1 / trellis=1 / 8x8dct=1 / cqm=0 / deadzone=21,11 / fast_pskip=0 / chroma_qp_offset=-2 / threads=25 / lookahead_threads=4 / sliced_threads=0 / nr=0 / decimate=1 / interlaced=0 / bluray_compat=0 / constrained_intra=0 / bframes=3 / b_pyramid=2 / b_adapt=1 / b_bias=0 / direct=1 / weightb=1 / open_gop=0 / weightp=2 / keyint=250 / keyint_min=23 / scenecut=40 / intra_refresh=0 / rc_lookahead=40 / rc=2pass / mbtree=1 / bitrate=9386 / ratetol=1.0 / qcomp=0.60 / qpmin=0 / qpmax=69 / qpstep=4 / cplxblur=20.0 / qblur=0.5 / ip_ratio=1.40 / aq=1:1.00
Language : English
Default : Yes
Forced : No

Audio
ID : 2
Format : DTS
Format/Info : Digital Theater Systems
Format profile : MA / Core
Codec ID : A_DTS
Duration : 1 h 40 min
Bit rate mode : Variable / Constant
Bit rate : 3 840 kb/s / 1 509 kb/s
Channel(s) : 6 channels
Channel positions : Front: L C R, Side: L R, LFE
Sampling rate : 48.0 kHz
Frame rate : 93.750 FPS (512 SPF)
Bit depth : 24 bits
Compression mode : Lossless / Lossy
Stream size : 2.69 GiB (29%)
Title : Truth.or.Dare.2018.1080p.BluRay.x264.DTS-HD.MA.5.1-FGT
Language : English
Default : Yes
Forced : No

Text #1
ID : 3
Format : UTF-8
Codec ID : S_TEXT/UTF8
Codec ID/Info : UTF-8 Plain Text
Duration : 1 h 39 min
Bit rate : 66 b/s
Count of elements : 1591
Stream size : 48.0 KiB (0%)
Title : English-SRT
Language : English
Default : Yes
Forced : No

Text #2
ID : 4
Format : PGS
Muxing mode : zlib
Codec ID : S_HDMV/PGS
Codec ID/Info : Picture based subtitle format used on BDs/HD-DVDs
Duration : 1 h 39 min
Bit rate : 47.7 kb/s
Count of elements : 3454
Stream size : 34.1 MiB (0%)
Title : English-PGS
Language : English
Default : No
Forced : No

Text #3
ID : 5
Format : PGS
Muxing mode : zlib
Codec ID : S_HDMV/PGS
Codec ID/Info : Picture based subtitle format used on BDs/HD-DVDs
Duration : 1 h 39 min
Bit rate : 34.1 kb/s
Count of elements : 3066
Stream size : 24.2 MiB (0%)
Title : Spanish-PGS
Language : Spanish
Default : No
Forced : No

Text #4
ID : 6
Format : PGS
Muxing mode : zlib
Codec ID : S_HDMV/PGS
Codec ID/Info : Picture based subtitle format used on BDs/HD-DVDs
Duration : 1 h 39 min
Bit rate : 34.8 kb/s
Count of elements : 3038
Stream size : 24.7 MiB (0%)
Title : French-PGS
Language : French
Default : No
Forced : No

Menu
00:00:00.000 : en:00:00:00.000
00:02:30.150 : en:00:02:30.150
00:10:48.064 : en:00:10:48.064
00:14:14.395 : en:00:14:14.395
00:20:26.475 : en:00:20:26.475
00:25:15.305 : en:00:25:15.305
00:29:19.716 : en:00:29:19.716
00:34:52.799 : en:00:34:52.799
00:41:21.104 : en:00:41:21.104
00:45:27.933 : en:00:45:27.933
00:48:32.534 : en:00:48:32.534
00:54:41.695 : en:00:54:41.695
00:58:25.418 : en:00:58:25.418
01:05:52.657 : en:01:05:52.657
01:10:03.115 : en:01:10:03.115
01:15:45.958 : en:01:15:45.958
01:21:58.246 : en:01:21:58.246
01:28:25.216 : en:01:28:25.216
01:31:46.000 : en:01:31:46.000
01:37:55.745 : en:01:37:55.745





1 个附件 售价 大小 下载 时间

Truth.or.Dare.2018.1080p.BluRay.x264.DTS-HD.MA.5.1-FGT.torrent 0 金币 93.67K 329 次 10天前

#1楼
发帖时间:2020-07-01 13:46:37   |   回复数:2
911degrees
隐世仙人♂
非常感谢,谢谢分享
10天前 #2楼
liyouchai
隐世仙人♂
谢谢楼主分享资源
9天前 #3楼
游客组