coor
一代宗师

[2010] [欧美] [喜剧] [BD-1080P] 赏金猎手/前妻拘捕令 The.Bounty.Hunter.2010.1080p.BluRay.x264.DTS-FGT 7.69GB

-->



◎译  名 赏金猎手 / 前妻拘捕令 / 赏金猎人 / 赏金猎人
◎片  名 The Bounty Hunter
◎年  代 2010
◎产  地 美国
◎类  别 喜剧 / 动作 / 爱情 / 犯罪
◎语  言 英语 / Ukrainian
◎上映日期 2010-03-19
◎IMDb评分 5.6/10 from 118769 users
◎IMDb链接 https://www.imdb.com/title/tt1038919
◎豆瓣评分 6.1/10 from 15388 users
◎豆瓣链接 https://movie.douban.com/subject/3673923/
◎片  长 110分钟
◎导  演 安迪·坦纳特 Andy Tennant
◎编  剧 Sarah Thorp
◎主  演 詹妮弗·安妮斯顿 Jennifer Aniston
      杰拉德·巴特勒 Gerard Butler
      杰森·苏戴奇斯 Jason Sudeikis
      亚当 罗斯 Adam Rose
      克里斯汀·芭伦斯基 Christine Baranski
      Dorian Missick


◎标  签 喜剧 | 美国 | JenniferAniston | 爱情 | 美国电影 | 2010 | GerardButler | 动作

◎简  介

  因沉迷赌博而负债累累的赏金猎手米洛·博伊德(杰拉德·巴特勒 Gerald Butler 饰)接到工作追捕自己的前妻,记者妮可·赫莉(詹妮弗·安妮斯顿 Jennifer Anniston 饰)。妮可因追踪一件离奇自杀事件,错过自己袭警交通案的出庭而被法院通缉。对自杀事件内情紧追不舍的她想尽了一切办法逃跑,使得本来就因彼此憎恨而离婚的两人关系更加糟糕,直到有神秘杀手突然出现要至妮可于死地。米洛这才发现自己对妮可一直不能忘情。为了保护妮可的安全,米洛带她来到了二人当初渡蜜月的“丘比特庄园”,前尘往事涌上心头,二人也都对是否应重续前缘而举棋不定。与此同时,米洛的赌债和妮可的调查只将情况搞得更加复杂……

◎获奖情况

  第31届金酸莓奖(2011)
  最差影片(提名)
  最差男主角(提名) 杰拉德·巴特勒
  最差女主角(提名) 詹妮弗·安妮斯顿
  最差银幕搭档/群戏(提名) 杰拉德·巴特勒 / 詹妮弗·安妮斯顿

Video
ID : 1
Format : AVC
Format/Info : Advanced Video Codec
Format profile : [email protected]
Format settings, CABAC : Yes
Format settings, ReFrames : 5 frames
Codec ID : V_MPEG4/ISO/AVC
Duration : 1h 50mn
Bit rate : 8 430 Kbps
Width : 1 920 pixels
Height : 816 pixels
Display aspect ratio : 2.35:1
Frame rate mode : Constant
Frame rate : 23.976 fps
Color space : YUV
Chroma subsampling : 4:2:0
Bit depth : 8 bits
Scan type : Progressive
Bits/(Pixel*Frame) : 0.224
Stream size : 6.38 GiB (83%)
Writing library : x264 core 142 r2491 24e4fed
Encoding settings : cabac=1 / ref=5 / deblock=1:-3:-3 / analyse=0x3:0x113 / me=umh / subme=10 / psy=1 / psy_rd=1.05:0.15 / mixed_ref=1 / me_range=48 / chroma_me=1 / trellis=2 / 8x8dct=1 / cqm=0 / deadzone=21,11 / fast_pskip=1 / chroma_qp_offset=-3 / threads=6 / lookahead_threads=1 / sliced_threads=0 / nr=0 / decimate=1 / interlaced=0 / bluray_compat=0 / constrained_intra=0 / bframes=7 / b_pyramid=2 / b_adapt=2 / b_bias=0 / direct=1 / weightb=1 / open_gop=0 / weightp=2 / keyint=240 / keyint_min=23 / scenecut=40 / intra_refresh=0 / rc_lookahead=40 / rc=2pass / mbtree=1 / bitrate=8430 / ratetol=1.0 / qcomp=0.60 / qpmin=0 / qpmax=69 / qpstep=4 / cplxblur=20.0 / qblur=0.5 / vbv_maxrate=62500 / vbv_bufsize=78125 / nal_hrd=none / filler=0 / ip_ratio=1.40 / aq=1:1.00
Language : English
Default : Yes
Forced : No
Color range : Limited
Color primaries : BT.709
Transfer characteristics : BT.709
Matrix coefficients : BT.709

Audio
ID : 2
Format : DTS
Format/Info : Digital Theater Systems
Mode : 16
Format settings, Endianness : Big
Codec ID : A_DTS
Duration : 1h 50mn
Bit rate mode : Constant
Bit rate : 1 509 Kbps
Channel(s) : 6 channels
Channel positions : Front: L C R, Side: L R, LFE
Sampling rate : 48.0 KHz
Bit depth : 24 bits
Compression mode : Lossy
Stream size : 1.17 GiB (15%)
Language : English
Default : Yes
Forced : No

Text
ID : 3
Format : PGS
Muxing mode : zlib
Codec ID : S_HDMV/PGS
Codec ID/Info : Picture based subtitle format used on BDs/HD-DVDs
Language : English
Default : Yes
Forced : No

Menu
00:00:00.000 : en:00:00:00.000
00:07:21.483 : en:00:07:21.483
00:15:15.206 : en:00:15:15.206
00:20:24.432 : en:00:20:24.432
00:28:28.665 : en:00:28:28.665
00:35:43.391 : en:00:35:43.391
00:41:41.124 : en:00:41:41.124
00:50:07.963 : en:00:50:07.963
00:55:02.049 : en:00:55:02.049
01:03:26.428 : en:01:03:26.428
01:11:15.813 : en:01:11:15.813
01:15:11.298 : en:01:15:11.298
01:23:52.361 : en:01:23:52.361
01:28:38.271 : en:01:28:38.271
01:36:51.472 : en:01:36:51.472
01:43:58.441 : en:01:43:58.441





1 个附件 售价 大小 下载 时间

The.Bounty.Hunter.2010.1080p.BluRay.x264.DTS-FGT.torrent 0 金币 77.55K 406 次 6天前

#1楼
发帖时间:2020-07-01 13:44:20   |   回复数:1
911degrees
隐世仙人♂
非常感谢,谢谢分享
6天前 #2楼
游客组