coor
一代宗师

[2010] [欧美] [喜剧] [BD-1080P] 二流警探/B咖战警 The.Other.Guys.2010.EXTENDED.1080p.BluRay.x264.DTS-FGT 11.00GB

-->



◎译  名 二流警探 / B咖战警 / The B Team / 贱贱刑警
◎片  名 The Other Guys
◎年  代 2010
◎产  地 美国
◎类  别 喜剧 / 动作 / 犯罪
◎语  言 英语
◎上映日期 2010-08-06
◎IMDb评分 6.6/10 from 236038 users
◎IMDb链接 https://www.imdb.com/title/tt1386588
◎豆瓣评分 6.1/10 from 11806 users
◎豆瓣链接 https://movie.douban.com/subject/3569915/
◎片  长 107分钟
◎导  演 亚当·麦凯 Adam McKay
◎编  剧 克里斯·亨奇 Chris Henchy / 亚当·麦凯 Adam McKay
◎主  演 马克·沃尔伯格 Mark Wahlberg
      威尔·法瑞尔 Will Ferrell
      道恩·强森 Dwayne Johnson
      塞缪尔·杰克逊 Samuel L. Jackson
      伊娃·门德斯 Eva Mendes
      雷·史蒂文森 Ray Stevenson
      迈克尔·基顿 Michael Keaton
      史蒂夫·库根 Steve Coogan


◎标  签 喜剧 | 美国 | 动作 | 美国电影 | 2010 | 警匪 | MarkWahlberg | 二流警探

◎简  介

  Highsmith(塞缪尔·杰克逊 Samuel L. Jackson 饰)和Danson(道恩·强森 Dwayne Johnson 饰)是一对无坚不摧的完美搭档,纽约警局里的超级精英,也是警界人士的崇拜对象。相比两人,一副呆子样的Allen(威尔·法瑞尔 Will Ferrell 饰)和身手好但脾气暴躁的Terry(马克·沃尔伯格 Mark Wahlberg 饰)却是底层警员,除了扶老太太过马路或者劝架之类闲杂事等,他俩几乎无所事事。一次偶然机会,却让他们得以替补偶像出更,两人自然不会放过这个出头的机会,但二人不性格不同、办事风格更是南辕北辙……
  最终,这一对难兄难弟是否能顺利完成任务,让众人对他们刮目相看?

◎获奖情况

  第13届美国青少年选择奖(2011)
  最佳喜剧片(提名)
  最佳喜剧片男演员(提名) 威尔·法瑞尔
  最佳喜剧片女演员(提名) 伊娃·门德斯
  最佳银幕拍档(提名) 威尔·法瑞尔 / 马克·沃尔伯格
  Choice Movie: Hissy Fit(提名) 马克·沃尔伯格

Video
ID : 1
Format : AVC
Format/Info : Advanced Video Codec
Format profile : [email protected]
Format settings : CABAC / 5 Ref Frames
Format settings, CABAC : Yes
Format settings, Reference frames : 5 frames
Codec ID : V_MPEG4/ISO/AVC
Duration : 1 h 56 min
Bit rate : 12.0 Mb/s
Width : 1 920 pixels
Height : 800 pixels
Display aspect ratio : 2.40:1
Frame rate mode : Constant
Frame rate : 23.976 FPS
Color space : YUV
Chroma subsampling : 4:2:0
Bit depth : 8 bits
Scan type : Progressive
Bits/(Pixel*Frame) : 0.327
Stream size : 9.56 GiB (87%)
Writing library : x264 core 108 r1790 8eaf8a6
Encoding settings : cabac=1 / ref=5 / deblock=1:-3:-3 / analyse=0x3:0x133 / me=umh / subme=10 / psy=1 / psy_rd=1.00:0.15 / mixed_ref=1 / me_range=32 / chroma_me=1 / trellis=2 / 8x8dct=1 / cqm=2 / deadzone=21,11 / fast_pskip=0 / chroma_qp_offset=-5 / threads=12 / sliced_threads=0 / nr=0 / decimate=0 / interlaced=0 / constrained_intra=0 / bframes=5 / b_pyramid=2 / b_adapt=2 / b_bias=0 / direct=3 / weightb=1 / open_gop=0 / weightp=2 / keyint=250 / keyint_min=23 / scenecut=40 / intra_refresh=0 / rc_lookahead=40 / rc=2pass / mbtree=1 / bitrate=12038 / ratetol=1.0 / qcomp=0.60 / qpmin=10 / qpmax=51 / qpstep=4 / cplxblur=20.0 / qblur=0.5 / vbv_maxrate=40000 / vbv_bufsize=30000 / ip_ratio=1.40 / aq=1:1.00 / nal_hrd=none
Language : English
Default : No
Forced : No

Audio
ID : 2
Format : DTS
Format/Info : Digital Theater Systems
Codec ID : A_DTS
Duration : 1 h 56 min
Bit rate mode : Constant
Bit rate : 1 509 kb/s
Channel(s) : 6 channels
Channel layout : C L R Ls Rs LFE
Sampling rate : 48.0 kHz
Frame rate : 93.750 FPS (512 SPF)
Bit depth : 24 bits
Compression mode : Lossy
Stream size : 1.23 GiB (11%)
Language : English
Default : No
Forced : No

Text
ID : 3
Format : UTF-8
Codec ID : S_TEXT/UTF8
Codec ID/Info : UTF-8 Plain Text
Language : English
Default : No
Forced : No

Menu
00:00:00.000 : en:Chapter 1
00:09:15.805 : en:Chapter 2
00:13:23.010 : en:Chapter 3
00:19:10.065 : en:Chapter 4
00:26:17.659 : en:Chapter 5
00:31:20.253 : en:Chapter 6
00:36:32.231 : en:Chapter 7
00:42:51.235 : en:Chapter 8
00:50:15.971 : en:Chapter 9
00:57:32.282 : en:Chapter 10
01:03:22.089 : en:Chapter 11
01:14:31.008 : en:Chapter 12
01:22:22.061 : en:Chapter 13
01:29:38.831 : en:Chapter 14
01:36:21.984 : en:Chapter 15





1 个附件 售价 大小 下载 时间

The.Other.Guys.2010.EXTENDED.1080p.BluRay.x264.DTS-FGT.torrent 0 金币 55.55K 560 次 10天前

#1楼
发帖时间:2020-07-01 13:44:04   |   回复数:1
911degrees
隐世仙人♂
非常感谢,谢谢分享
10天前 #2楼
游客组