coor
一代宗师

[更 早] [欧美] [动作] [BD-1080P] 失落世界的统治者/金刚:迷失的世界 King.of.the.Lost.World.2005.1080p.BluRay.x264.DTS-FGT 6.02GB

-->



◎译  名 失落世界的统治者 / 金刚:迷失的世界
◎片  名 King of the Lost World
◎年  代 2005
◎产  地 美国
◎类  别 动作 / 奇幻 / 冒险
◎语  言 英语
◎上映日期 2005-12-13(美国)
◎IMDb评分 2.4/10 from 1641 users
◎IMDb链接 https://www.imdb.com/title/tt0478188
◎豆瓣评分 2.7/10 from 258 users
◎豆瓣链接 https://movie.douban.com/subject/1499158/
◎片  长 80 分钟
◎导  演 Leigh Slawner
◎主  演 Bruce Boxleitner
      Rhett Giles
      Jeff Denton


◎标  签 美国 | 烂片 | 美国电影 | 烂烂烂烂烂烂烂烂烂烂烂烂烂烂烂烂烂 | 冒险 | 奇幻 | 怪兽题材 | 烂得无以加复

◎简  介

  改编自英国作家阿瑟?柯南?道尔的经典作品,内容充满动作和冒险。一架商务飞机失事,堕落在在亚马孙的中部。现在, 4 个幸存者必须面对一个神秘和敌意的世界,里面有龙,巨型蝎子, 和一只站起来有十层楼高的人猿巨兽。

Video
ID : 1
Format : AVC
Format/Info : Advanced Video Codec
Format profile : [email protected]
Format settings, CABAC : Yes
Format settings, ReFrames : 4 frames
Codec ID : V_MPEG4/ISO/AVC
Duration : 1h 20mn
Bit rate : 8 985 Kbps
Width : 1 920 pixels
Height : 1 080 pixels
Display aspect ratio : 16:9
Frame rate mode : Constant
Frame rate : 23.976 (24000/1001) fps
Color space : YUV
Chroma subsampling : 4:2:0
Bit depth : 8 bits
Scan type : Progressive
Bits/(Pixel*Frame) : 0.181
Stream size : 5.05 GiB (84%)
Writing library : x264 core 129 r2245 bc13772
Encoding settings : cabac=1 / ref=4 / deblock=1:-1:-1 / analyse=0x3:0x133 / me=umh / subme=7 / psy=1 / psy_rd=1.00:0.15 / mixed_ref=1 / me_range=16 / chroma_me=1 / trellis=1 / 8x8dct=1 / cqm=0 / deadzone=21,11 / fast_pskip=0 / chroma_qp_offset=-3 / threads=12 / lookahead_threads=2 / sliced_threads=0 / nr=0 / decimate=1 / interlaced=0 / bluray_compat=0 / constrained_intra=0 / bframes=3 / b_pyramid=2 / b_adapt=1 / b_bias=0 / direct=3 / weightb=1 / open_gop=0 / weightp=2 / keyint=240 / keyint_min=23 / scenecut=40 / intra_refresh=0 / rc_lookahead=40 / rc=crf / mbtree=1 / crf=20.0 / qcomp=0.60 / qpmin=10 / qpmax=69 / qpstep=4 / ip_ratio=1.40 / aq=1:1.00
Language : English
Default : Yes
Forced : No

Audio
ID : 2
Format : DTS
Format/Info : Digital Theater Systems
Mode : 16
Format settings, Endianness : Big
Codec ID : A_DTS
Duration : 1h 20mn
Bit rate mode : Constant
Bit rate : 1 509 Kbps
Channel(s) : 6 channels
Channel positions : Front: L C R, Side: L R, LFE
Sampling rate : 48.0 KHz
Frame rate : 93.750 fps (512 spf)
Bit depth : 16 bits
Compression mode : Lossy
Stream size : 869 MiB (14%)
Language : English
Default : Yes
Forced : No

Menu
00:00:00.000 : en:00:00:00.000
00:09:59.974 : en:00:09:59.974
00:19:59.990 : en:00:19:59.990
00:29:59.964 : en:00:29:59.964
00:39:59.980 : en:00:39:59.980
00:49:59.955 : en:00:49:59.955
00:59:59.971 : en:00:59:59.971
01:09:59.945 : en:01:09:59.945





1 个附件 售价 大小 下载 时间

King.of.the.Lost.World.2005.1080p.BluRay.x264.DTS-FGT.torrent 0 金币 60.84K 182 次 6天前

#1楼
发帖时间:2020-07-01 13:33:15   |   回复数:2
911degrees
隐世仙人♂
非常感谢,谢谢分享
6天前 #2楼
kola13
一派掌门
感谢分享
6天前 #3楼
游客组