coor
一代宗师

[2008] [欧美] [剧情] [BD-1080P] 叛国者/叛徒 Traitor.2007.1080p.BluRay.x264.DTS-FGT 6.58GB

-->



◎译  名 叛国者 / 叛徒
◎片  名 Traitor
◎年  代 2008
◎产  地 美国
◎类  别 剧情 / 惊悚 / 犯罪
◎语  言 英语 / 阿拉伯语
◎上映日期 2008-08-27
◎IMDb评分 7.0/10 from 54656 users
◎IMDb链接 https://www.imdb.com/title/tt0988047
◎豆瓣评分 7.1/10 from 8215 users
◎豆瓣链接 https://movie.douban.com/subject/2158328/
◎片  长 114 分钟
◎导  演 Jeffrey Nachmanoff
◎编  剧 Jeffrey Nachmanoff
◎主  演 Guy Pearce
      Don Cheadle
      Jeff Daniels
      Neal McDonough
      Simon Reynolds


◎标  签 美国 | 犯罪 | 宗教 | 美国电影 | 反恐 | 剧情 | 动作 | 2008

◎简  介

  穆斯林恐怖组织势力日益强大,为了挫败他们的国际阴谋,FBI探员罗伊·克莱顿(盖·皮尔斯 Guy Pearce 饰)被派遣着手调查。然而在调查中,他意外发现,许多线索表明前特战军官塞莫·霍恩(唐·钱德尔 Don Cheadle 饰)与某恐怖组织有着密切的联系。霍恩本是CIA卧底探员,苏丹裔穆斯林的他很容易就打入了恐怖组织内部。但穷追不舍搜索证据的克莱顿觉察出,如今的霍恩早已不是单纯的卧底。随着调查步步深入,事情的真相也渐渐浮出水面,可一切背后的复杂,远远超乎克莱顿的预料......
  完全沉迷在了寻找隐藏在暗处的秘密,罗伊追踪塞莫几乎跑遍了全球,而他自己也正在一点点进入一个完全由阴谋和诡计构成的地下世界当中.....

Video
ID : 1
Format : AVC
Format/Info : Advanced Video Codec
Format profile : [email protected]
Format settings, CABAC : Yes
Format settings, ReFrames : 5 frames
Codec ID : V_MPEG4/ISO/AVC
Duration : 1h 54mn
Bit rate : 6 695 Kbps
Width : 1 920 pixels
Height : 800 pixels
Display aspect ratio : 2.40:1
Frame rate mode : Constant
Frame rate : 23.976 fps
Color space : YUV
Chroma subsampling : 4:2:0
Bit depth : 8 bits
Scan type : Progressive
Bits/(Pixel*Frame) : 0.182
Stream size : 5.25 GiB (80%)
Writing library : x264 core 138 r2358 9e941d1
Encoding settings : cabac=1 / ref=5 / deblock=1:-2:-2 / analyse=0x3:0x113 / me=hex / subme=9 / psy=1 / psy_rd=1.00:0.00 / mixed_ref=1 / me_range=16 / chroma_me=1 / trellis=0 / 8x8dct=1 / cqm=0 / deadzone=21,11 / fast_pskip=1 / chroma_qp_offset=-2 / threads=4 / lookahead_threads=1 / sliced_threads=0 / nr=0 / decimate=0 / interlaced=0 / bluray_compat=0 / constrained_intra=0 / bframes=3 / b_pyramid=2 / b_adapt=1 / b_bias=0 / direct=1 / weightb=1 / open_gop=0 / weightp=2 / keyint=240 / keyint_min=23 / scenecut=40 / intra_refresh=0 / rc_lookahead=40 / rc=2pass / mbtree=1 / bitrate=6695 / ratetol=2.0 / qcomp=0.60 / qpmin=10 / qpmax=51 / qpstep=4 / cplxblur=20.0 / qblur=0.5 / vbv_maxrate=38000 / vbv_bufsize=30000 / nal_hrd=none / ip_ratio=1.40 / aq=1:1.00
Language : English
Default : Yes
Forced : No

Audio
ID : 2
Format : DTS
Format/Info : Digital Theater Systems
Mode : 16
Format settings, Endianness : Big
Codec ID : A_DTS
Duration : 1h 54mn
Bit rate mode : Constant
Bit rate : 1 510 Kbps
Channel(s) : 6 channels
Channel positions : Front: L C R, Side: L R, LFE
Sampling rate : 48.0 KHz
Frame rate : 93.750 fps (512 spf)
Bit depth : 24 bits
Compression mode : Lossy
Stream size : 1.21 GiB (18%)
Language : English
Default : Yes
Forced : No

Text
ID : 3
Format : UTF-8
Codec ID : S_TEXT/UTF8
Codec ID/Info : UTF-8 Plain Text
Language : English
Default : Yes
Forced : No





1 个附件 售价 大小 下载 时间

Traitor.2007.1080p.BluRay.x264.DTS-FGT.torrent 0 金币 66.40K 504 次 6天前

#1楼
发帖时间:2020-07-01 13:32:26   |   回复数:2
911degrees
隐世仙人♂
非常感谢,谢谢分享
6天前 #2楼
kola13
一派掌门
感谢分享
6天前 #3楼
游客组