coor
一代宗师

[2008] [其他] [其他] [BD-1080P] 龙战 Dragon.Hunters.2008.1080p.BluRay.x264.DTS-FGT 6.55GB

-->



◎译  名 龙战 / Die Drachenj?ger / Dragon Hunters / 屠龙猎手 / 战龙高手 / 捉龙特攻队(台) / 猎龙人
◎片  名 Chasseurs de dragons
◎年  代 2008
◎产  地 法国 / 德国 / 卢森堡
◎类  别 动画 / 奇幻 / 冒险
◎语  言 法语 / 法语
◎上映日期 2008-03-26(法国) / 2008-04-24(德国)
◎IMDb评分 6.6/10 from 11781 users
◎IMDb链接 https://www.imdb.com/title/tt0944834
◎豆瓣评分 7.1/10 from 2869 users
◎豆瓣链接 https://movie.douban.com/subject/2972134/
◎片  长 80分钟
◎导  演 纪约姆·伊弗奈 Guillaume Ivernel / 亚瑟·夸克 Arthur Qwak
◎编  剧 弗雷德里克·勒努瓦 Frédéric Lenoir / 亚瑟·夸克 Arthur Qwak
◎主  演 梵尚·兰东 Vincent Lindon
      帕特里克·坦西 Patrick Timsit
      菲利普·纳翁 Philippe Nahon
      阿曼达·李尔 Amanda Lear
      玛丽·德里昂 Marie Drion
      杰瑞米·普雷沃斯特 Jeremy Prevost
      让-马克·朗特勒蒂昂 Jean-Marc Lentretien


◎标  签 动画 | 法国 | 奇幻 | 2008 | 猎龙人 | 卡通 | 魔幻 | 冒险

◎简  介

  佐埃是一个相信传奇故事的小女孩,这并不是因为她天真幼稚,而是因为她喜欢传奇故事。为了帮助她的叔叔亚瑟大人摆脱可怕的龙,佐埃踏上了寻找英雄之路。她没找到英雄,却碰到了格威兹多和连秋,两个临时凑数的猎龙人,结果佐埃决定还是相信他们!

Video
ID : 1
Format : AVC
Format/Info : Advanced Video Codec
Format profile : [email protected]
Format settings : CABAC / 4 Ref Frames
Format settings, CABAC : Yes
Format settings, Reference frames : 4 frames
Codec ID : V_MPEG4/ISO/AVC
Duration : 1 h 21 min
Bit rate : 9 920 kb/s
Width : 1 920 pixels
Height : 1 080 pixels
Display aspect ratio : 16:9
Frame rate mode : Constant
Frame rate : 23.976 FPS
Color space : YUV
Chroma subsampling : 4:2:0
Bit depth : 8 bits
Scan type : Progressive
Bits/(Pixel*Frame) : 0.200
Stream size : 5.55 GiB (85%)
Title : Dragon.Hunters.2008.1080p.BluRay.x264.DTS-FGT
Writing library : x264 core 68 r1183M f21daff
Encoding settings : cabac=1 / ref=4 / deblock=1:-3:-3 / analyse=0x3:0x133 / me=umh / subme=9 / psy_rd=0.9:0.0 / mixed_ref=1 / me_range=24 / chroma_me=1 / trellis=2 / 8x8dct=1 / cqm=0 / deadzone=21,11 / chroma_qp_offset=-2 / threads=6 / nr=0 / decimate=1 / mbaff=0 / bframes=6 / b_pyramid=1 / b_adapt=2 / b_bias=0 / direct=3 / wpredb=1 / keyint=250 / keyint_min=25 / scenecut=40 / rc=2pass / bitrate=9920 / ratetol=1.0 / qcomp=0.60 / qpmin=10 / qpmax=35 / qpstep=4 / cplxblur=20.0 / qblur=0.5 / ip_ratio=1.40 / pb_ratio=1.30 / aq=1:0.70
Language : English
Default : Yes
Forced : No

Audio
ID : 2
Format : DTS
Format/Info : Digital Theater Systems
Codec ID : A_DTS
Duration : 1 h 21 min
Bit rate mode : Constant
Bit rate : 1 509 kb/s
Channel(s) : 6 channels
Channel layout : C L R Ls Rs LFE
Sampling rate : 48.0 kHz
Frame rate : 93.750 FPS (512 SPF)
Bit depth : 24 bits
Compression mode : Lossy
Stream size : 885 MiB (13%)
Title : Dragon.Hunters.2008.1080p.BluRay.x264.DTS-FGT
Language : English
Default : Yes
Forced : No

Text
ID : 3
Format : UTF-8
Codec ID : S_TEXT/UTF8
Codec ID/Info : UTF-8 Plain Text
Language : English
Default : Yes
Forced : No





1 个附件 售价 大小 下载 时间

Dragon.Hunters.2008.1080p.BluRay.x264.DTS-FGT.torrent 0 金币 66.05K 266 次 6天前

#1楼
发帖时间:2020-07-01 13:25:13   |   回复数:1
911degrees
隐世仙人♂
非常感谢,谢谢分享
6天前 #2楼
游客组