coor
一代宗师

[更 早] [其他] [爱情] [BD-1080P] 恶魔咆哮4/恶魔咆哮4:恶梦成真 Wishmaster.4.The.Prophecy.Fulfilled.2002.1080p.BluRay.x264.DTS-

-->



◎译  名 恶魔咆哮4 / 恶魔咆哮4:恶梦成真 / 恶魔咆哮4:预言实现
◎片  名 Wishmaster 4: The Prophecy Fulfilled
◎年  代 2002
◎产  地 加拿大 / 美国
◎类  别 爱情 / 恐怖 / 奇幻
◎语  言 英语
◎上映日期 2002-06-10
◎IMDb评分 4.0/10 from 3278 users
◎IMDb链接 https://www.imdb.com/title/tt0254872
◎豆瓣评分 5.1/10 from 94 users
◎豆瓣链接 https://movie.douban.com/subject/2036231/
◎导  演 Chris Angel
◎编  剧 Peter Atkins / John Benjamin Martin
◎主  演 Tara Spencer-Nairn
      Michael Trucco
      Jason Thompson


◎标  签 恐怖 | 恐怖电影 | 美国 | 2002 | 血腥 | 灵异 | 恐怖标签 | 奇幻

◎简  介

  Wishmaster 4 is a poor relation to the original. I have not seen 2 or 3, and just happened to see this on the Sci-Fi Channel. It was an entertaining movie, mostly because the star, James Trucco (Verdel) has such an uncanny similarity to SCOTT PETERSON, the accused killer of his wife and baby fetus. Seeing that guy play a Demonic role in W4 made it seem more weird than it really was. The make-up on the main Djinn (John Novak) was almost comical. He looks like HERMAN MUNSTER's long-lost son. He also does not look very horrifying. Under the make-up, Novak looks like he got his acting lessons watching CREATURE FEATURE. W4 is relatively fast-paced, but it has very few scares and not much that is scary. In the original, all of the horrible actions of the Djinn came to the attention of the female lead, Tara Spencer-Nairn, and she suffered a lot at the hands of the Djinn. In this move, the Djinn is trapped by the 3rd wish, and he must seduce Tara so she will accept him as he is. Sadly, the best scene, where the Djinn is making love to Tara, is where he should have transformed into Djinn and it would have been very terrifying. However, that scene took place with Verdel as Djinn, and Tara did not even register much shock or disgust later when she discovered that she had made lover to a demon. Part of the subplot has to do with her handicapped boyfriend, and that entiresubplot is not very positive, since the boyfriend is given the use of his legs. Overall, W4 is not very complicated, it is kind-of a silly movie, and while there is some gore, it is not very gory. W4 is a good time-killer, but it is not a classic Horror movie unless you are a fan of the Mystery Science Theatre.

Video
ID : 1
Format : AVC
Format/Info : Advanced Video Codec
Format profile : [email protected]
Format settings, CABAC : Yes
Format settings, ReFrames : 4 frames
Codec ID : V_MPEG4/ISO/AVC
Duration : 1h 31mn
Bit rate : 10.9 Mbps
Nominal bit rate : 11.5 Mbps
Width : 1 920 pixels
Height : 1 036 pixels
Display aspect ratio : 1.85:1
Frame rate mode : Constant
Frame rate : 23.976 (24000/1001) fps
Color space : YUV
Chroma subsampling : 4:2:0
Bit depth : 8 bits
Scan type : Progressive
Bits/(Pixel*Frame) : 0.229
Stream size : 7.00 GiB (86%)
Title : Wishmaster.4.The.Prophecy.Fulfilled.2002.1080p.BluRay.x264.DTS-FGT
Writing library : x264 core 148 r2694 3b70645
Encoding settings : cabac=1 / ref=4 / deblock=1:-2:-2 / analyse=0x3:0x113 / me=umh / subme=7 / psy=1 / psy_rd=1.00:0.15 / mixed_ref=1 / me_range=16 / chroma_me=1 / trellis=1 / 8x8dct=1 / cqm=0 / deadzone=21,11 / fast_pskip=1 / chroma_qp_offset=-3 / threads=24 / lookahead_threads=3 / sliced_threads=0 / nr=0 / decimate=1 / interlaced=0 / bluray_compat=0 / constrained_intra=0 / bframes=3 / b_pyramid=2 / b_adapt=2 / b_bias=0 / direct=3 / weightb=1 / open_gop=0 / weightp=2 / keyint=250 / keyint_min=25 / scenecut=40 / intra_refresh=0 / rc_lookahead=50 / rc=abr / mbtree=1 / bitrate=11500 / ratetol=1.0 / qcomp=0.60 / qpmin=0 / qpmax=69 / qpstep=4 / vbv_maxrate=31250 / vbv_bufsize=31250 / nal_hrd=none / filler=0 / ip_ratio=1.40 / aq=1:1.00
Language : English
Default : Yes
Forced : No

Audio
ID : 2
Format : DTS
Format/Info : Digital Theater Systems
Mode : 16
Format settings, Endianness : Big
Codec ID : A_DTS
Duration : 1h 31mn
Bit rate mode : Constant
Bit rate : 1 509 Kbps
Channel(s) : 6 channels
Channel positions : Front: L C R, Side: L R, LFE
Sampling rate : 48.0 KHz
Frame rate : 93.750 fps (512 spf)
Bit depth : 24 bits
Compression mode : Lossy
Stream size : 991 MiB (12%)
Title : Wishmaster.4.The.Prophecy.Fulfilled.2002.1080p.BluRay.x264.DTS-FGT
Language : English
Default : Yes
Forced : No

Text
ID : 3
Format : UTF-8
Codec ID : S_TEXT/UTF8
Codec ID/Info : UTF-8 Plain Text
Language : English
Default : Yes
Forced : No

Menu
00:00:00.000 : en:Chapter 01
00:10:05.271 : en:Chapter 02
00:15:51.825 : en:Chapter 03
00:24:40.854 : en:Chapter 04
00:31:14.539 : en:Chapter 05
00:42:30.714 : en:Chapter 06
00:52:11.586 : en:Chapter 07
01:00:41.262 : en:Chapter 08
01:06:20.935 : en:Chapter 09
01:13:26.819 : en:Chapter 10
01:19:03.238 : en:Chapter 11
01:28:23.256 : en:Chapter 12





1 个附件 售价 大小 下载 时间

Wishmaster.4.The.Prophecy.Fulfilled.2002.1080p.BluRay.x264.DTS-FGT.torrent 0 金币 81.99K 182 次 10天前

#1楼
发帖时间:2020-07-01 13:23:45   |   回复数:1
911degrees
隐世仙人♂
非常感谢,谢谢分享
10天前 #2楼
游客组