coor
一代宗师

[2013] [欧美] [剧情] [BD-1080P] 重创/狂咬一族 Avenged.2013.UNCUT.1080p.BluRay.x264.DTS-FGT 10.42GB

-->



◎译  名 重创 / 狂咬一族 / 猛击
◎片  名 Savaged
◎年  代 2013
◎产  地 美国
◎类  别 剧情 / 动作 / 恐怖
◎语  言 英语
◎上映日期 2013-10-11(韩国)
◎IMDb评分 5.5/10 from 3271 users
◎IMDb链接 https://www.imdb.com/title/tt2378453
◎豆瓣评分 6.4/10 from 3261 users
◎豆瓣链接 https://movie.douban.com/subject/20427592/
◎片  长 95分钟
◎导  演 Michael S. Ojeda
◎编  剧 Michael S. Ojeda
◎主  演 阿曼达·艾德丽安 Amanda Adrienne
      Tom Ardavany
      罗尼·吉恩·贝尔维斯 Ronnie Gene Blevins
      Ernie Charles
      Brionne Davis
      Bobby Field
      Ed Fletcher
      Jason Gurvitz
      Willow Hale
      Dan Kiefer
      Daniel Knight
      John Charles Meyer
      Rick Mora
      Kyle Morris
      罗德尼·罗兰德 Rodney Rowland


◎标  签 恐怖 | 血腥 | 惊悚 | 丧尸 | 重口 | 美国 | 复仇 | 犯罪

◎简  介

  失聪女孩佐伊(阿曼达·阿德里安 Amanda Adrienne 饰)独自驾车前往新墨西哥州,只为了见一见她深爱的男友。炎热的荒漠公路上,心情快乐的佐伊险些撞到一名受伤的印第安人,她看到一伙白人匪徒正对另一名印第安人展开杀戮,出于善良和同情,她出手相助,却让自己置身于莫大的危险之中。佐伊遭到匪徒们残酷虐待,最终更惨遭杀害,曝尸荒野。善良的印第安老人取回了佐伊的尸体,并利用千百年来流行的咒术帮她还魂。
  只不过睁开双眼的佐伊,却变成了一个充满复仇怒火的恐怖魔女。血债血还,所有让她置身如此境地的邪恶之徒都将为此付出代价。

Video
ID : 1
Format : AVC
Format/Info : Advanced Video Codec
Format profile : [email protected]
Format settings, CABAC : Yes
Format settings, ReFrames : 4 frames
Codec ID : V_MPEG4/ISO/AVC
Duration : 1h 34mn
Bit rate : 15.0 Mbps
Width : 1 920 pixels
Height : 1 014 pixels
Display aspect ratio : 1.893
Frame rate mode : Constant
Frame rate : 23.976 (24000/1001) fps
Color space : YUV
Chroma subsampling : 4:2:0
Bit depth : 8 bits
Scan type : Progressive
Bits/(Pixel*Frame) : 0.321
Stream size : 9.71 GiB (93%)
Title : Avenged.2013.UNCUT.1080p.BluRay.x264.DTS-FGT
Writing library : x264 core 142 r2431+42 c69a006 tMod [[email protected] X86]
Encoding settings : cabac=1 / ref=4 / deblock=1:0:0 / analyse=0x3:0x113 / me=umh / subme=10 / psy=1 / fade_compensate=0.00 / psy_rd=1.05:0.10 / mixed_ref=1 / me_range=48 / chroma_me=1 / trellis=2 / 8x8dct=1 / cqm=0 / deadzone=21,11 / fast_pskip=0 / chroma_qp_offset=-2 / threads=12 / lookahead_threads=1 / sliced_threads=0 / nr=0 / decimate=1 / interlaced=0 / bluray_compat=0 / constrained_intra=0 / fgo=0 / bframes=6 / b_pyramid=2 / b_adapt=2 / b_bias=0 / direct=3 / weightb=1 / open_gop=0 / weightp=2 / keyint=250 / keyint_min=23 / scenecut=40 / intra_refresh=0 / rc=2pass / mbtree=0 / bitrate=15000 / ratetol=2.0 / qcomp=0.70 / qpmin=0:0:0 / qpmax=69:69:69 / qpstep=4 / cplxblur=20.0 / qblur=0.5 / ip_ratio=1.40 / pb_ratio=1.30 / aq=2:1.00 / aq-sensitivity=10.00 / aq-factor=1.00:1.00:1.00 / aq2=0 / aq3=0
Language : English
Default : Yes
Forced : No

Audio
ID : 2
Format : DTS
Format/Info : Digital Theater Systems
Mode : 16
Format settings, Endianness : Big
Codec ID : A_DTS
Duration : 1h 34mn
Bit rate mode : Constant
Bit rate : 768 Kbps
Channel(s) : 6 channels
Channel positions : Front: L C R, Side: L R, LFE
Sampling rate : 48.0 KHz
Frame rate : 93.750 fps (512 spf)
Bit depth : 16 bits
Compression mode : Lossy
Stream size : 520 MiB (5%)
Title : Avenged.2013.UNCUT.1080p.BluRay.x264.DTS-FGT
Language : English
Default : Yes
Forced : No





1 个附件 售价 大小 下载 时间

Avenged.2013.UNCUT.1080p.BluRay.x264.DTS-FGT.torrent 0 金币 52.71K 266 次 6天前

#1楼
发帖时间:2020-07-01 13:11:42   |   回复数:2
911degrees
隐世仙人♂
非常感谢,谢谢分享
6天前 #2楼
liyouchai
隐世仙人♂
谢谢楼主分享资源
6天前 #3楼
游客组