coor
一代宗师

[2016] [欧美] [动作] [BD-1080P] 星球大战外传:侠盗一号 Rogue.One.2016.BONUS.DISC.1080p.BluRay.x264.DD2.0-FGT 5.65GB

-->



◎译  名 星球大战外传:侠盗一号 / Rogue One / Star Wars Anthology: Rogue One / Star Wars: Rogue One / 侠盗一号 / 侠盗一号:星球大战外传 / 星战外传1 / 星球大战:侠盗一号 / 罗格一号
◎片  名 Rogue One: A Star Wars Story
◎年  代 2016
◎产  地 美国
◎类  别 动作 / 科幻 / 冒险
◎语  言 英语
◎上映日期 2016-12-16(美国) / 2017-01-06(中国大陆)
◎IMDb评分 7.8/10 from 533499 users
◎IMDb链接 https://www.imdb.com/title/tt3748528
◎豆瓣评分 7.3/10 from 151851 users
◎豆瓣链接 https://movie.douban.com/subject/25894431/
◎片  长 134分钟
◎导  演 加里斯·爱德华斯 Gareth Edwards
◎编  剧 克里斯·韦兹 Chris Weitz / 托尼·吉尔罗伊 Tony Gilroy / 约翰·诺尔 John Knoll / 加里·维塔 Gary Whitta / 乔治·卢卡斯 George Lucas
◎主  演 费莉西蒂·琼斯 Felicity Jones
      迭戈·鲁纳 Diego Luna
      甄子丹 Donnie Yen
      本·门德尔森 Ben Mendelsohn
      麦斯·米科尔森 Mads Mikkelsen
      艾伦·图代克 Alan Tudyk
      福里斯特·惠特克 Forest Whitaker
      姜文 Wen Jiang
      里兹·阿迈德 Riz Ahmed
      乔纳森·阿里斯 Jonathan Aris
      尤妮斯·奥卢米德 Eunice Olumide
      克莱尔·陈 Claire Tran
      吉米·斯密茨 Jimmy Smits
      沃维克·戴维斯 Warwick Davis
      马克·普雷斯顿 Mark Preston
      吉娜薇·欧瑞丽 Genevieve O'Reilly
      詹姆斯·厄尔·琼斯 James Earl Jones


◎标  签 科幻 | 星球大战 | 美国 | 动作 | StarWar | 冒险 | 2016 | 史诗

◎简  介

  共和体制崩塌,银河帝国的阴影笼罩着宇宙文明每一个角落。为了加强对反抗势力的镇压,塔金主义直接催生了一种足以摧毁星球的超级武器——死星的诞生,而物理科学家盖伦·厄索(麦斯·米科尔森 Mads Mikkelsen 饰)正是死星的主要设计者。厄索的女儿琴(菲丽希缇·琼斯 Felicity Jones 饰)在童年时代与父母经历了生离死别,之后她被反抗组织领袖索?格雷拉(福里斯特·惠特克 Forest Whitaker 饰)所抚养长大。成年后琴罪行累累,成为帝国的阶下囚,最终却被反抗组织救出。从格雷拉那里她得知死星的存在,并见证了一个城市的灰飞烟灭。然而义军同盟决然不信死星的存在,万般无奈琴和飞行员卡西安·安多(迭戈·鲁纳 Diego Luna 饰)等人孤身前往收藏着死星设计图的星球,攸关全宇宙命运的战争拉开了序幕……
  故事根据1977年《星球大战:新希望》片头的一段文字改编。

◎获奖情况

  第89届奥斯卡金像奖(2017)
  最佳视觉效果(提名) 尼尔·科博尔德 / 哈尔·T·希克尔 / 莫亨·利奥 / 约翰·诺尔
  最佳混音(提名) 克里斯托弗·斯卡拉博西奥 / 斯图尔特·威尔逊 / 大卫·帕克

  第70届英国电影学院奖(2017)
  电影奖 最佳化妆/发型(提名) 尼尔·斯坎伦 / 阿曼达·奈特 / 丽萨·汤布林
  电影奖 最佳特殊视觉效果(提名) Nigel Sumner / 哈尔·T·希克尔 / 约翰·诺尔 / 莫亨·利奥 / 尼尔·科博尔德

  第26届MTV电影奖(2017)
  MTV电影奖 年度电影(提名)

  第21届美国艺术指导工会奖(2017)
  电影奖 最佳幻想电影艺术指导(提名)

  第19届美国服装设计工会奖(2017)
  科幻/奇幻题材电影最佳服装设计(提名)

  第15届美国视觉效果协会奖(2017)
  最佳特效电影视觉效果(提名)
  最佳真人电影CG动画角色(提名)
  最佳真人电影CG背景(提名)
  最佳电影虚拟摄影(提名)
  最佳电影模型(提名)
  最佳真人电影模拟动画效果(提名)

  第53届美国声音效果协会奖(2017)
  真人电影最佳音效(提名)

  第4届豆瓣电影年度榜单(2017)
  1月最受关注电影(提名)

Video
ID : 1
Format : AVC
Format/Info : Advanced Video Codec
Format profile : [email protected]
Format settings, CABAC : Yes
Format settings, ReFrames : 4 frames
Codec ID : V_MPEG4/ISO/AVC
Duration : 1h 8mn
Bit rate : 11.5 Mbps
Width : 1 920 pixels
Height : 800 pixels
Display aspect ratio : 2.40:1
Frame rate mode : Constant
Frame rate : 23.976 (24000/1001) fps
Color space : YUV
Chroma subsampling : 4:2:0
Bit depth : 8 bits
Scan type : Progressive
Bits/(Pixel*Frame) : 0.312
Stream size : 5.39 GiB (95%)
Title : Rogue.One.2016.BONUS.DISC.1080p.BluRay.x264.DD2.0-FGT
Writing library : x264 core 148 r2601 a0cd7d3
Encoding settings : cabac=1 / ref=4 / deblock=1:-2:-2 / analyse=0x3:0x113 / me=umh / subme=7 / psy=1 / psy_rd=1.00:0.15 / mixed_ref=1 / me_range=16 / chroma_me=1 / trellis=1 / 8x8dct=1 / cqm=0 / deadzone=21,11 / fast_pskip=1 / chroma_qp_offset=-3 / threads=40 / lookahead_threads=3 / sliced_threads=0 / nr=0 / decimate=1 / interlaced=0 / bluray_compat=0 / constrained_intra=0 / bframes=3 / b_pyramid=2 / b_adapt=2 / b_bias=0 / direct=3 / weightb=1 / open_gop=0 / weightp=2 / keyint=250 / keyint_min=25 / scenecut=40 / intra_refresh=0 / rc_lookahead=50 / rc=abr / mbtree=1 / bitrate=11500 / ratetol=1.0 / qcomp=0.60 / qpmin=0 / qpmax=69 / qpstep=4 / vbv_maxrate=31250 / vbv_bufsize=31250 / nal_hrd=none / filler=0 / ip_ratio=1.40 / aq=1:1.00
Language : English
Default : Yes
Forced : No

Audio
ID : 2
Format : AC-3
Format/Info : Audio Coding 3
Mode extension : CM (complete main)
Format settings, Endianness : Big
Codec ID : A_AC3
Duration : 1h 8mn
Bit rate mode : Constant
Bit rate : 320 Kbps
Channel(s) : 2 channels
Channel positions : Front: L R
Sampling rate : 48.0 KHz
Frame rate : 31.250 fps (1536 spf)
Compression mode : Lossy
Stream size : 158 MiB (3%)
Title : Rogue.One.2016.BONUS.DISC.1080p.BluRay.x264.DD2.0-FGT
Language : English
Default : Yes
Forced : No

Text
ID : 3
Format : UTF-8
Codec ID : S_TEXT/UTF8
Codec ID/Info : UTF-8 Plain Text
Title : Rogue.One.2016.BONUS.DISC.1080p.BluRay.x264.DD2.0-FGT
Language : English
Default : Yes
Forced : No

Menu
00:00:00.000 : en:Chapter 01
00:09:00.540 : en:Chapter 02
00:15:16.916 : en:Chapter 03
00:19:31.128 : en:Chapter 04
00:27:14.591 : en:Chapter 05
00:33:34.971 : en:Chapter 06
00:42:10.486 : en:Chapter 07
00:50:28.984 : en:Chapter 08
00:58:53.488 : en:Chapter 09
01:04:42.795 : en:Chapter 10





1 个附件 售价 大小 下载 时间

Rogue.One.2016.BONUS.DISC.1080p.BluRay.x264.DD2.0-FGT.torrent 0 金币 57.19K 336 次 6天前

#1楼
发帖时间:2020-07-01 13:06:46   |   回复数:3
911degrees
隐世仙人♂
非常感谢,谢谢分享
6天前 #2楼
ulix
武林高手
谢谢分享
6天前 #3楼
jokingcheung
一代宗师
谢谢分享
5天前 #4楼
游客组