coor
一代宗师

[更 早] [其他] [剧情] [BD-1080P] 浩劫大逃亡 The.Chain.Reaction.1980.1080p.BluRay.x264.DTS-FGT 8.40GB

-->



◎译  名 浩劫大逃亡
◎片  名 The Chain Reaction
◎年  代 1980
◎产  地 澳大利亚
◎类  别 剧情 / 动作
◎语  言 英语
◎上映日期 1980-09-25
◎IMDb评分 5.4/10 from 770 users
◎IMDb链接 https://www.imdb.com/title/tt0080513
◎豆瓣评分 0/10 from 0 users
◎豆瓣链接 https://movie.douban.com/subject/1305156/
◎片  长 92 分钟
◎导  演 Ian Barry
◎编  剧 Ian Barry
◎主  演 史提夫·比斯利 Steve Bisley
      Arna-Maria Winchester
      休·基斯-拜恩 Hugh Keays-Byrne
      Richard Moir
      梅尔·吉布森 Mel Gibson


◎标  签 澳大利亚 | 动作 | 美国 | 心跳回忆, | 剧情 | M美国 | IanBarry | D梅尔·吉布森

◎简  介

  An earthquake in rural Australia causes a dangerous leak at WALDO, a nuclear waste storage facility. Heinrich Schmidt, an engineer badly hurt in the accident, knows that the leak will poison the groundwater for hundreds of miles around, and wants to warn the public. His boss, however, is only interested in protecting himself, and believes the accident should be covered up, even at the expense of thousands of lives. Heinrich escapes from the facility, but is too badly injured to get very far. Lost in the woods and suffering from amnesia, he is rescued by Larry, an auto mechanic on vacation with his wife, Carmel. As Heinrich tries to piece together his memories of what happened, his boss' thugs are quickly closing in on the trio.
Video
ID : 1
Format : AVC
Format/Info : Advanced Video Codec
Format profile : [email protected]
Format settings : CABAC / 4 Ref Frames
Format settings, CABAC : Yes
Format settings, Reference frames : 4 frames
Codec ID : V_MPEG4/ISO/AVC
Duration : 1 h 32 min
Bit rate : 11.5 Mb/s
Width : 1 920 pixels
Height : 1 040 pixels
Display aspect ratio : 1.85:1
Frame rate mode : Constant
Frame rate : 23.976 (24000/1001/189150) FPS
Color space : YUV
Chroma subsampling : 4:2:0
Bit depth : 8 bits
Scan type : Progressive
Bits/(Pixel*Frame) : 0.240
Stream size : 7.42 GiB (88%)
Title : The.Chain.Reaction.1980.1080p.BluRay.x264.DTS-FGT
Writing library : x264 core 148 r2795M aaa9aa8
Encoding settings : cabac=1 / ref=4 / deblock=1:-2:-2 / analyse=0x3:0x113 / me=umh / subme=9 / psy=1 / psy_rd=1.00:0.15 / mixed_ref=1 / me_range=16 / chroma_me=1 / trellis=2 / 8x8dct=1 / cqm=0 / deadzone=21,11 / fast_pskip=1 / chroma_qp_offset=-3 / threads=72 / lookahead_threads=3 / sliced_threads=0 / nr=0 / decimate=1 / interlaced=0 / bluray_compat=0 / constrained_intra=0 / bframes=3 / b_pyramid=2 / b_adapt=1 / b_bias=0 / direct=3 / weightb=1 / open_gop=0 / weightp=2 / keyint=250 / keyint_min=25 / scenecut=40 / intra_refresh=0 / rc_lookahead=50 / rc=2pass / mbtree=1 / bitrate=11500 / ratetol=1.0 / qcomp=0.60 / qpmin=0 / qpmax=69 / qpstep=4 / cplxblur=20.0 / qblur=0.5 / vbv_maxrate=31250 / vbv_bufsize=31250 / nal_hrd=none / filler=0 / ip_ratio=1.40 / aq=1:1.00
Language : English
Default : Yes
Forced : No

Audio
ID : 2
Format : DTS
Format/Info : Digital Theater Systems
Codec ID : A_DTS
Duration : 1 h 32 min
Bit rate mode : Constant
Bit rate : 1 509 kb/s
Channel(s) : 2 channels
Channel layout : L R
Sampling rate : 48.0 kHz
Frame rate : 93.750 FPS (512 SPF)
Bit depth : 16 bits
Compression mode : Lossy
Stream size : 997 MiB (12%)
Title : The.Chain.Reaction.1980.1080p.BluRay.x264.DTS-FGT
Language : English
Default : Yes
Forced : No

Text
ID : 3
Format : UTF-8
Codec ID : S_TEXT/UTF8
Codec ID/Info : UTF-8 Plain Text
Duration : 1 h 25 min
Bit rate : 50 b/s
Count of elements : 1085
Stream size : 32.0 KiB (0%)
Language : English
Default : Yes
Forced : No

Menu
00:00:00.000 : en:Chapter 1
00:00:13.764 : en:Chapter 2
00:10:52.110 : en:Chapter 3
00:18:13.551 : en:Chapter 4
00:26:18.952 : en:Chapter 5
00:34:08.213 : en:Chapter 6
00:41:27.276 : en:Chapter 7
00:49:39.518 : en:Chapter 8
00:56:25.966 : en:Chapter 9
01:05:31.636 : en:Chapter 10
01:16:47.311 : en:Chapter 11
01:22:03.752 : en:Chapter 12
01:29:34.286 : en:Chapter 13





1 个附件 售价 大小 下载 时间

The.Chain.Reaction.1980.1080p.BluRay.x264.DTS-FGT.torrent 0 金币 84.50K 175 次 7天前

#1楼
发帖时间:2020-06-30 11:31:11   |   回复数:1
911degrees
隐世仙人♂
非常感谢,谢谢分享
7天前 #2楼
游客组