coor
一代宗师

[更 早] [欧美] [其他] [BD-4K] 黑暗正义联盟:天启星战争 Justice.League.Dark.Apokolips.War.2020.2160p.BluRay.x264.8bit.SDR.D

-->

帖子完整标题:黑暗正义联盟:天启星战争 Justice.League.Dark.Apokolips.War.2020.2160p.BluRay.x264.8bit.SDR.DTS-HD.MA.5.1-SWTYBLZ 14.16GB




◎译  名 黑暗正义联盟:天启星战争
◎片  名 Justice League Dark: Apokolips War
◎年  代 2020
◎产  地 美国
◎类  别 动画
◎语  言 英语
◎上映日期 2020-05-05(美国)
◎IMDb评分 7.9/10 from 6668 users
◎IMDb链接 https://www.imdb.com/title/tt11079148
◎豆瓣评分 7.3/10 from 6032 users
◎豆瓣链接 https://movie.douban.com/subject/34777818/
◎片  长 90分钟
◎导  演 马特·皮特斯 Matt Peters / 克里斯蒂娜·索塔 Christina Sotta
◎编  剧 厄尼·阿特巴克 Ernie Altbacker / 麦格里德·斯科特 Mairghread Scott
◎主  演 托尼·托德 Tony Todd
      丽贝卡·罗梅恩 Rebecca Romijn
      罗莎里奥·道森 Rosario Dawson
      雷恩·威尔森 Rainn Wilson
      卡米拉·卢丁顿 Camilla Luddington
      泰莎·法米加 Taissa Farmiga
      杰瑞·奥康奈尔 Jerry O'Connell
      谢默·摩尔 Shemar Moore
      克里斯托弗·戈勒姆 Christopher Gorham
      马特·瑞安 Matt Ryan
      杰森·奥玛拉 Jason O'Mara
      连姆·麦肯泰尔 Liam McIntyre
      约翰·迪·马吉欧 John Di Maggio
      海登·瓦尔希 Hynden Walch
      罗杰·R.克劳斯 Roger R. Cross
      雷·蔡斯 Ray Chase
      斯图尔特·艾伦 Stuart Allan
      萨奇·阿莱西奥 Sachie Alessio


◎标  签 DC | 动画 | 正义联盟 | 超级英雄 | 美国 | DC动漫 | 漫画改编 | 科幻

◎简  介

  正义联盟集结地球上所有超级英雄一起对抗强大的反派达克赛德。
Video
ID : 1
Format : AVC
Format/Info : Advanced Video Codec
Format profile : [email protected]
Format settings : CABAC / 5 Ref Frames
Format settings, CABAC : Yes
Format settings, Reference frames : 5 frames
Codec ID : V_MPEG4/ISO/AVC
Duration : 1 h 30 min
Bit rate : 19.4 Mb/s
Width : 3 840 pixels
Height : 2 160 pixels
Display aspect ratio : 16:9
Frame rate mode : Constant
Frame rate : 23.976 (24000/1001/189150) FPS
Color space : YUV
Chroma subsampling : 4:2:0
Bit depth : 8 bits
Scan type : Progressive
Bits/(Pixel*Frame) : 0.098
Stream size : 12.2 GiB (87%)
Title : Justice.League.Dark.Apokolips.War.2020.2160p.BluRay.x264.8bit.SDR.DTS-HD.MA.5.1-SWTYBLZ
Writing library : x264 core 157 r2935 545de2f
Encoding settings : cabac=1 / ref=5 / deblock=1:1:1 / analyse=0x3:0x113 / me=umh / subme=10 / psy=1 / psy_rd=0.40:0.00 / mixed_ref=1 / me_range=48 / chroma_me=1 / trellis=2 / 8x8dct=1 / cqm=0 / deadzone=21,11 / fast_pskip=1 / chroma_qp_offset=-2 / threads=48 / lookahead_threads=5 / sliced_threads=0 / nr=0 / decimate=0 / interlaced=0 / bluray_compat=0 / constrained_intra=0 / bframes=5 / b_pyramid=2 / b_adapt=2 / b_bias=0 / direct=3 / weightb=1 / open_gop=0 / weightp=2 / keyint=250 / keyint_min=23 / scenecut=40 / intra_refresh=0 / rc_lookahead=50 / rc=crf / mbtree=1 / crf=14.0 / qcomp=0.60 / qpmin=0 / qpmax=69 / qpstep=4 / ip_ratio=1.40 / aq=1:0.60
Default : Yes
Forced : No

Audio #1
ID : 2
ID in the original source medium : 4352 (0x1100)
Format : DTS XLL
Format/Info : Digital Theater Systems
Commercial name : DTS-HD Master Audio
Codec ID : A_DTS
Duration : 1 h 30 min
Bit rate mode : Variable
Bit rate : 2 320 kb/s
Channel(s) : 6 channels
Channel layout : C L R Ls Rs LFE
Sampling rate : 48.0 kHz
Frame rate : 93.750 FPS (512 SPF)
Bit depth : 16 bits
Compression mode : Lossless
Stream size : 1.46 GiB (10%)
Title : Justice.League.Dark.Apokolips.War.2020.2160p.BluRay.x264.8bit.SDR.DTS-HD.MA.5.1-SWTYBLZ
Language : English
Default : Yes
Forced : No
Original source medium : Blu-ray

Audio #2
ID : 3
Format : AC-3
Format/Info : Audio Coding 3
Commercial name : Dolby Digital
Codec ID : A_AC3
Duration : 1 h 30 min
Bit rate mode : Constant
Bit rate : 640 kb/s
Channel(s) : 6 channels
Channel layout : L R C LFE Ls Rs
Sampling rate : 48.0 kHz
Frame rate : 31.250 FPS (1536 SPF)
Bit depth : 16 bits
Compression mode : Lossy
Stream size : 413 MiB (3%)
Title : Justice.League.Dark.Apokolips.War.2020.2160p.BluRay.x264.8bit.SDR.DTS-HD.MA.5.1-SWTYBLZ
Language : English
Service kind : Complete Main
Default : No
Forced : No

Text #1
ID : 4
Format : UTF-8
Codec ID : S_TEXT/UTF8
Codec ID/Info : UTF-8 Plain Text
Duration : 1 h 24 min
Bit rate : 45 b/s
Count of elements : 1004
Stream size : 28.4 KiB (0%)
Title : English-SRT
Language : English
Default : Yes
Forced : No

Text #2
ID : 5
ID in the original source medium : 4768 (0x12A0)
Format : PGS
Muxing mode : zlib
Codec ID : S_HDMV/PGS
Codec ID/Info : Picture based subtitle format used on BDs/HD-DVDs
Duration : 1 h 25 min
Bit rate : 32.6 kb/s
Count of elements : 2490
Stream size : 19.9 MiB (0%)
Title : English-PGS
Language : English
Default : No
Forced : No
Original source medium : Blu-ray

Text #3
ID : 6
ID in the original source medium : 4769 (0x12A1)
Format : PGS
Muxing mode : zlib
Codec ID : S_HDMV/PGS
Codec ID/Info : Picture based subtitle format used on BDs/HD-DVDs
Duration : 1 h 29 min
Bit rate : 27.9 kb/s
Count of elements : 1974
Stream size : 17.8 MiB (0%)
Title : French-PGS
Language : French
Default : No
Forced : No
Original source medium : Blu-ray

Text #4
ID : 7
ID in the original source medium : 4770 (0x12A2)
Format : PGS
Muxing mode : zlib
Codec ID : S_HDMV/PGS
Codec ID/Info : Picture based subtitle format used on BDs/HD-DVDs
Duration : 1 h 29 min
Bit rate : 27.9 kb/s
Count of elements : 1978
Stream size : 17.8 MiB (0%)
Title : Spanish-PGS
Language : Spanish
Default : No
Forced : No
Original source medium : Blu-ray

Menu
00:00:00.000 : en:Chapter 01
00:08:30.593 : en:Chapter 02
00:17:35.095 : en:Chapter 03
00:27:06.625 : en:Chapter 04
00:35:31.170 : en:Chapter 05
00:44:35.673 : en:Chapter 06
00:53:16.067 : en:Chapter 07
01:01:53.543 : en:Chapter 08
01:08:14.340 : en:Chapter 09
01:17:38.195 : en:Chapter 10
01:26:54.667 : en:Chapter 11





1 个附件 售价 大小 下载 时间

Justice.League.Dark.Apokolips.War.2020.2160p.BluRay.x264.8bit.SDR.DTS-HD.MA.5.1-SWTYBLZ.torrent 0 金币 71.47K 469 次 9天前

#1楼
发帖时间:2020-05-22 23:51:02   |   回复数:1
911degrees
隐世仙人♂
非常感谢,谢谢分享
8天前 #2楼
游客组